Welcome Guest ( Log In | Register )

> 

Здесь релизы с живыми прямыми ссылками на lossless

> Ringworm - Death Becomes My Voice (2019), Thrash Metal/Hardcore
post May 1 2019, 18:12:09
Post #1

Правь статус, ####!111
**************
Group: Металариец
Posts: 19,818
Releases: 13447
From: Г.Харьков
On Forums: 7 years 7 months
Thanks: 232576 time(s)
Unknown


(IMG:https://metalarea.org/images/audiocovers/2019_May/acov_tid321288_thumb.jpg)

*Artist: Ringworm
*Album: Death Becomes My Voice
*Year: 2019
*Genre: Thrash Metal/Hardcore
*Country: United States (IMG:https://metalarea.org/forum/style_images/flags/United%20States.png)
*Format: mp3@CBR320kbps
*Size: 89MB

Tracklist:
1. Death Becomes My Voice 05:19
2. Carnivores 02:58
3. Acquiesce 03:29
4. Do Not Resuscitate 02:46
5. Dead to Me 04:39
6. The God of New Flesh 01:58
7. I Want to Tear the World Apart 02:48
8. Dying by Design 03:26
9. Separate Realities 03:47
10. Let it Burn 03:08
11. Final Division 04:00
******************************
Total playing time: 38:18




Extended info
Ed Stephens Bass
Matt Sorg Guitars
HF Vocals
Ryan Steigerwald Drums
Mark Witherspoon Guitars



Technical info
(IMG:https://metalarea.org/images/spectrogram/2019_May/c0e44c7e5cba08622e021334f222cb77.png)
Input File: 05 - Dead to Me.mp3
Channels : 2
Sample Rate : 44100
Precision : 16-bit
Duration : 00:04:38.35 = 12275367 samples = 20876.5 CDDA sectors
File Size : 11.4M
Bit Rate : 326k
Sample Encoding: MPEG audio (layer I, II or III)
Comments :
Title=Dead To Me
Artist=Ringworm
Album=Death Becomes My Voice
Tracknumber=5
Year=2019
Genre=Hardcore



Register


Go to the top of the page
  Insert nick Quick quote
+Quote Post
 
Start new topic
Replies (1 - 4)
post May 2 2019, 12:45:50
Post #2

Маньяк
**********
Group: Металариец
Posts: 1,350
Releases: 119
On Forums: 10 years 4 months
Thanks: 1005 time(s)
Kazakhstan


классики старинного металкора. Не то чтоб восхитительны, но для матчасти можно послушать
Go to the top of the page
  Insert nick Quick quote
+Quote Post
post May 2 2019, 16:51:51
Post #3

Шесть Литров
******
Group: Металариец
Posts: 609
Releases: 0
On Forums: 6 years 4 months
Thanks: 407 time(s)
Australia


QUOTE(scrollbar @ May 2 2019, 13:45:50) *
классики старинного металкора. Не то чтоб восхитительны, но для матчасти можно послушать

metalcore (IMG:style_emoticons/default/hmm.gif)
Go to the top of the page
  Insert nick Quick quote
+Quote Post
post Dec 2 2019, 22:26:17
Post #4

Два Литра
**
Group: Завсегдатай
Posts: 107
Releases: 0
From: Isla de Margarita, Venezuela
On Forums: 10 months 3 weeks
Thanks: 9 time(s)
Venezuela


Dead Links (IMG:style_emoticons/default/6.gif)
Go to the top of the page
  Insert nick Quick quote
+Quote Post
post Dec 6 2019, 16:38:50
Post #5


Group Icon
Group: S-moderation team
Posts: 12,910
Releases: 1439
From: Zagreb
On Forums: 8 years 9 months
Thanks: 56026 time(s)
Croatia


Register


Thanks:
(1) Olethros,
Go to the top of the page
  Insert nick Quick quote
+Quote Post

Reply to this topicStart new topic
1 User(s) are reading this topic (1 Guests and 0 Anonymous Users)
0 Members:

 



- Lo-Fi Version Support form
Copyrights and abuse reports form
Time is now: 11th December 2019 - 03:40:19