Welcome Guest ( Log In | Register )

> Myrath - Shehili (2019), Progressive/Middle Eastern Folk Metal (D6)
post May 2 2019, 11:11:18
Post #1

Serial Uploader
Group Icon
Group: V.I.P
Posts: 37,112
Releases: 35296
From: Lithuania
On Forums: 11 years 9 months
Thanks: 418060 time(s)
Lithuania


(IMG:https://metalarea.org/images/audiocovers/2019_May/acov_tid321315_thumb.jpg)

*Artist: Myrath
*Album: Shehili
*Year: 2019
*Genre: Progressive/Middle Eastern Folk Metal
*Country: Tunisia (IMG:https://metalarea.org/forum/style_images/flags/Tunisia.png)
*Format: mp3@CBR320kbps
*Size: 109MB

Tracklist:
01. Asl 01:09
02. Born to Survive 03:34
03. You've Lost Yourself 04:53
04. Dance 03:48
05. Wicked Dice 04:11
06. Monster in My Closet 04:50
07. Lili Twil 03:47
08. No Holding Back 04:42
09. Stardust 04:02
10. Mersal 03:43
11. Darkness Arise 04:33
12. Shehili 04:21
******************************
Total playing time: 47:33

(IMG:https://metalarea.org/images/myspace.png)


(IMG:https://metalarea.org/images/youtube.png)

Technical info
(IMG:https://metalarea.org/images/spectrogram/2019_May/4cebe6f9438c2d5d9ca5d27ab7d0021f.png)
Input File: 2 - Born to Survive.mp3
Channels : 2
Sample Rate : 44100
Precision : 16-bit
Duration : 00:03:34.27 = 9449219 samples = 16070.1 CDDA sectors
File Size : 8.61M
Bit Rate : 322k
Sample Encoding: MPEG audio (layer I, II or III)
Comments :
Title=Born to Survive
Artist=Myrath
Album=Shehili
Tracknumber=2
Year=2019
Genre=Rock/Hard Rock/Metal
Discnumber=1



Register


Go to the top of the page
  Insert nick Quick quote
+Quote Post
2 Pages V  < 1 2  
Start new topic
Replies (30 - 35)
post May 19 2019, 20:24:14
Post #31

дууумер!
**************
Group: Металариец
Posts: 2,712
Releases: 4
From: SPb
On Forums: 13 years 6 days
Thanks: 865 time(s)
Russian Federation


Я был один из тех, кто жестко критиковал группу, которая после мощнейшего дебюта встала на коммерческие рельсы.
И что мы видим, коммерция в самом расцвете, прогрессива уже не осталось, зато какая мелодика, какое звучание! Пусть несут такой металл в массы, я только за. Ребята сделали большой шаг вперед после предыдущих шагов назад.
Это менее элитарная музыка, соответственно, более массовая. Но она тоже очень хороша.
Предрекаю данному творению большой успех и признание.
8,5 из 10. Хороший, хитовый ориентал метал


Thanks:
Go to the top of the page
  Insert nick Quick quote
+Quote Post
post Jun 3 2019, 21:20:49
Post #32

Ёлд ХеллоВяйне
Group Icon
Group: V.I.P
Posts: 28,940
Releases: 133
From: Питер
On Forums: 13 years 5 months
Thanks: 16775 time(s)
Russian Federation


Какой-то беспонтовый квазипроговый павер. Разве что в первый трек внезапно подвезли этники, причём не шаверма-стайл, да в Darkness Arise интересная интерлюдия.


Thanks:
Go to the top of the page
  Insert nick Quick quote
+Quote Post
post Aug 12 2019, 08:31:50
Post #33

Наливай!
**************
Group: Металариец
Posts: 5,620
Releases: 27
From: Москва-Бибирево
On Forums: 12 years 2 weeks
Thanks: 2795 time(s)
Russian Federation


04.Dance - Остается, остальные на выход. Рахат лукума много.
Go to the top of the page
  Insert nick Quick quote
+Quote Post
post Aug 12 2019, 08:42:32
Post #34

И Ван Дамм По Делам Вашим!
**************
Group: Металариец
Posts: 18,751
Releases: 26
On Forums: 11 years 9 months
Thanks: 10371 time(s)
Honduras


ЦИТАТА(White_eagle @ May 19 2019, 22:24:14) *
Я был один из тех, кто жестко критиковал группу, которая после мощнейшего дебюта встала на коммерческие рельсы.

Дебют как раз и не очень у них а вот следующие два самое то.
Go to the top of the page
  Insert nick Quick quote
+Quote Post
post Aug 21 2019, 13:35:29
Post #35

дууумер!
**************
Group: Металариец
Posts: 2,712
Releases: 4
From: SPb
On Forums: 13 years 6 days
Thanks: 865 time(s)
Russian Federation


ЦИТАТА(hammer @ Aug 12 2019, 10:42:32) *
Дебют как раз и не очень у них а вот следующие два самое то.

Ну,значит, ты не очень любишь прог, а любишь веселенькие арабские мелодии.
Go to the top of the page
  Insert nick Quick quote
+Quote Post
post Aug 21 2019, 14:39:57
Post #36

И Ван Дамм По Делам Вашим!
**************
Group: Металариец
Posts: 18,751
Releases: 26
On Forums: 11 years 9 months
Thanks: 10371 time(s)
Honduras


ЦИТАТА(White_eagle @ Aug 21 2019, 15:35:29) *
Ну,значит, ты не очень любишь прог, а любишь веселенькие арабские мелодии.

У них больше пауэр прог там чем прог.Если именно первый брать.сорри это я туплю.это на втором прог пауэр а на первом прог отличный.
Go to the top of the page
  Insert nick Quick quote
+Quote Post

2 Pages V  < 1 2
Reply to this topicStart new topic
2 User(s) are reading this topic (2 Guests and 0 Anonymous Users)
0 Members:

 



- Lo-Fi Version Support form
Copyrights and abuse reports form
Time is now: 31st March 2020 - 19:37:53