Welcome Guest ( Log In | Register )

> И неформату есть предел.

Рэп/хип-хоп/шансон/поп удаляются. Для них есть свои порталы.

> Schandmaul - Artus (2019), Medieval Rock (D12)
post May 2 2019, 13:30:15
Post #1

Serial Uploader
Group Icon
Group: V.I.P
Posts: 37,203
Releases: 35386
From: Lithuania
On Forums: 12 years 4 weeks
Thanks: 421185 time(s)
Lithuania


(IMG:https://metalarea.org/images/audiocovers/2019_May/acov_tid321335_thumb.jpg)

*Artist: Schandmaul
*Album: Artus
*Year: 2019
*Genre: Medieval Rock
*Country: Germany (IMG:https://metalarea.org/forum/style_images/flags/Germany.png)
*Format: mp3@CBR320kbps
*Size: 181MB

Tracklist:
01. Camelot - Die Tafelrunde
02. Der Meisterdieb
03. Camelot - Der Gral
04. Der Totengräber
05. Camelot - Die Insel
06. Vagabunden
07. Froschkönig
08. Auf und davon
09. Der Kapitän
10. Die Oboe
11. Chevaliers
12. Die Tafelrunde
13. Der Gral
14. Die Insel – Ynys Yr Afallon
15. Der Weiße Wal
******************************
Total playing time: 1:18:43

(IMG:https://metalarea.org/images/myspace.png)

(IMG:https://metalarea.org/images/youtube.png)

Technical info
(IMG:https://metalarea.org/images/spectrogram/2019_May/758acb8aaf55c116720dec94da5dd26d.png)
Input File: 1 Der Meisterdieb.mp3
Channels : 2
Sample Rate : 44100
Precision : 16-bit
Duration : 00:04:31.11 = 11956083 samples = 20333.5 CDDA sectors
File Size : 11.5M
Bit Rate : 339k
Sample Encoding: MPEG audio (layer I, II or III)
Comments :
Title=Der Meisterdieb
Artist=Schandmaul
Album=Artus
Tracknumber=1/12/12
Year=2019
Genre=Folk Metal
Discnumber=1/2/2



Register


Go to the top of the page
  Insert nick Quick quote
+Quote Post
 
Start new topic
Replies (1 - 3)
post May 2 2019, 16:30:53
Post #2

MDM-Thrash Metal
**************
Group: Металариец
Posts: 9,632
Releases: 914
From: Одесса
On Forums: 12 years 10 months
Thanks: 23611 time(s)
Ukraine


Register


Go to the top of the page
  Insert nick Quick quote
+Quote Post
post May 5 2019, 09:58:56
Post #3

Ъ
**************
Group: Металариец
Posts: 10,140
Releases: 9
On Forums: 11 years 5 months
Thanks: 2037 time(s)
Sweden


Помню какая то песня в начале нулевых у них нравилась, с тех пор иногда пробую их альбомы, но это вечный порожняк, собственно как и сабж, откуда у них фанаты - хз.
Go to the top of the page
  Insert nick Quick quote
+Quote Post
post Apr 11 2020, 16:00:33
Post #4

Group: Дух
Posts: 5
Releases: 0
From: Омск
On Forums: 2 years 8 months
Thanks: 1 time(s)
Russian Federation


ЦИТАТА(DenisKov @ 5th May 2019 - 14:58:56) *
Помню какая то песня в начале нулевых у них нравилась


Дай угадаю - herren der winde?
Go to the top of the page
  Insert nick Quick quote
+Quote Post

Reply to this topicStart new topic
1 User(s) are reading this topic (1 Guests and 0 Anonymous Users)
0 Members:

 



- Lo-Fi Version Support form
Copyrights and abuse reports form
Time is now: 6th July 2020 - 08:03:11