Welcome Guest ( Log In | Register )

 
Reply to this topicStart new topic
> Engine Driven Cultivators - Back From The Drainpipe (2011), Thrash Metal
post May 5 2019, 13:58:20
Post #1

Правь статус, ####!111
**************
Group: Металариец
Posts: 25,773
Releases: 18452
From: Г.Харьков
On Forums: 8 years 11 months
Thanks: 364200 time(s)
Unknown


(IMG:https://metalarea.org/images/audiocovers/2019_May/acov_tid321458_thumb.jpg)

*Artist: Engine Driven Cultivators
*Album: Back From The Drainpipe
*Year: 2011
*Genre: Thrash Metal
*Country: Italy (IMG:https://metalarea.org/forum/style_images/flags/Italy.png)
*Format: mp3@CBR320kbps
*Size: 89MB

Tracklist:
1. Hash Drunk Runners 06:26
2. Final Outcome: Cyberworld 04:54
3. Into the Cyclone 04:23
4. Beach Parade 06:09
5. Apology of the Forgotten 04:09
6. Still in the Sights 04:53
7. The Claim of Mary Read 05:06
8. Cheese Rolling 02:45
******************************
Total playing time: 38:45




Extended info
31 мая новый альбом
Mattia Tibuzzi Bass
Jacopo Bassi Drums
Daniele Ricci Guitars
Adriano Angeli Guitars
Alessandro "Maraccio" Giorgi Vocals


Technical info
(IMG:https://metalarea.org/images/spectrogram/2019_May/74e5477a7bf84162efd6ff8b41c610d0.png)
Input File: 04 - Beach Parade.mp3
Channels : 2
Sample Rate : 44100
Precision : 16-bit
Duration : 00:06:09.08 = 16276340 samples = 27680.9 CDDA sectors
File Size : 14.9M
Bit Rate : 323k
Sample Encoding: MPEG audio (layer I, II or III)
Comments :
Title=Beach Parade
Artist=Engine Driven Cultivators
Album=Back from the Drainpipe
Tracknumber=4
Year=2013
Genre=Metal
Discnumber=1



Register


Go to the top of the page
  Insert nick Quick quote
+Quote Post

Reply to this topicStart new topic
1 User(s) are reading this topic (1 Guests and 0 Anonymous Users)
0 Members:

 



- Lo-Fi Version Support form
Copyrights and abuse reports form
Time is now: 17th April 2021 - 23:44:28