Welcome Guest ( Log In | Register )

> 

Здесь релизы с живыми прямыми ссылками на lossless

> Tomhet - Tomhet (2019), Black Metal
post May 7 2019, 15:41:07
Post #1

Мегаманьяк
***********
Group: Металариец
Posts: 1,697
Releases: 1338
From: Prešov
On Forums: 5 years 2 months
Thanks: 32077 time(s)
Slovakia


(IMG:http://metalarea.org/images/audiocovers/2019_May/acov_tid321519_thumb.jpg)

*Artist: Tomhet
*Album: Tomhet
*Year: 2019
*Genre: Black Metal
*Country: Sweden (IMG:http://metalarea.org/forum/style_images/flags/Sweden.png)
*Format: mp3@CBR320kbps
*Size: 65MB

Tracklist:
1. Sprödglimmer 01:06
2. Meinvættur 03:44
3. Blys 04:31
4. Bedraga Ljusan 01:55
5. Gagnad Brenna 02:19
6. Makrotris Värusmos 03:12
7. Skalvdrap 03:44
8. Sudnad 01:29
9. Tvinsot 01:37
10. Untitled 02:59
******************************
Total playing time: 26:36



Extended info
Brugmanziah, 12'' LP.


Technical info
(IMG:http://metalarea.org/images/spectrogram/2019_May/f389dece543af219d0f2387be324179f.png)
Input File: 02. Meinvættur.mp3
Channels : 2
Sample Rate : 44100
Precision : 16-bit
Duration : 00:03:44.96 = 9920560 samples = 16871.7 CDDA sectors
File Size : 9.25M
Bit Rate : 329k
Sample Encoding: MPEG audio (layer I, II or III)
Comments :
Title=Meinvættur
Artist=Tomhet
Album=Tomhet
Tracknumber=02/10
Year=2019
Genre=Black Metal



Register


Go to the top of the page
  Insert nick Quick quote
+Quote Post
 
Start new topic
Replies (1 - 4)
post May 7 2019, 16:04:46
Post #2
BAN
Banned till
Jun 15 2019, 17:50:12



@320

Register


Go to the top of the page
  Insert nick Quick quote
+Quote Post
post May 7 2019, 16:31:21
Post #3

Литр
*
Group: Подсевший
Posts: 79
Releases: 3
On Forums: 7 years 3 months
Thanks: 107 time(s)
Ukraine


Is this really 320CBR? The spectral analysis shows a VBR sample.

EDIT. I checked, and it seems that even the original Bandcamp MP3 version has the same quality. FLAC version is better, though. I might upload it.


Go to the top of the page
  Insert nick Quick quote
+Quote Post
post May 7 2019, 18:23:25
Post #4

Литр
*
Group: Подсевший
Posts: 79
Releases: 3
On Forums: 7 years 3 months
Thanks: 107 time(s)
Ukraine


Here's the FLAC version. I enjoyed this album, especially the tracks Meinvættur and Blys. I believe there should be a Raw Black Metal tag somewhere for this album.
Register

Register


Go to the top of the page
  Insert nick Quick quote
+Quote Post
post May 7 2019, 21:47:02
Post #5
BAN
Banned till
Jun 15 2019, 17:50:12



Проект чуви из Wulkanaz. Материал записывался в период с 2012 по 2013 год.
Go to the top of the page
  Insert nick Quick quote
+Quote Post

Reply to this topicStart new topic
1 User(s) are reading this topic (1 Guests and 0 Anonymous Users)
0 Members:

 



- Lo-Fi Version Support form
Copyrights and abuse reports form
Time is now: 16th June 2019 - 07:47:54