Welcome Guest ( Log In | Register )

> Releases Upload / Добавление релизов

Добавить релиз тут / Click here to add release
Рекомендованные обменники / Recommended file shares

> Oxymorya - Save Your Mind (2019), Symphonic Metal
post May 8 2019, 12:42:49
Post #1

Serial Uploader
Group Icon
Group: V.I.P
Posts: 35,127
Releases: 33345
From: Lithuania
On Forums: 10 years 11 months
Thanks: 382035 time(s)
Lithuania


(IMG:https://metalarea.org/images/audiocovers/2019_May/acov_tid321548_thumb.jpg)

*Artist: Oxymorya
*Album: Save Your Mind
*Year: 2019
*Genre: Symphonic Metal
*Country: France (IMG:https://metalarea.org/forum/style_images/flags/France.png)
*Format: mp3@CBR320kbps
*Size: 108MB

Tracklist:
01. Welcome to Earth 06:04
02. The Cave 05:57
03. Remember 04:30
04. In the Long Run... We Are All Dead 05:29
05. Arcadia 04:22
06. Divina Machina 03:35
07. Behind the Door 05:47
08. The Great Apocalypse 06:05
09. This Is the End 05:07
******************************
Total playing time: 46:56




Technical info
(IMG:https://metalarea.org/images/spectrogram/2019_May/e493438c422386f1ef6f18f530a167db.png)
Input File: 02. The Cave.mp3
Channels : 2
Sample Rate : 44100
Precision : 16-bit
Duration : 00:05:57.82 = 15779950 samples = 26836.6 CDDA sectors
File Size : 14.4M
Bit Rate : 322k
Sample Encoding: MPEG audio (layer I, II or III)
Comments :
Title=The Cave
Artist=Oxymorya
Album=Save Your Mind
Tracknumber=2
Year=2019
Discnumber=1



Register


Go to the top of the page
  Insert nick Quick quote
+Quote Post
 
Start new topic
Replies (1 - 3)
post May 9 2019, 08:10:55
Post #2

Тридцать лет на борту "Тяжёлого" крейсера
**************
Group: Металариец
Posts: 2,032
Releases: 0
From: Питер
On Forums: 11 years 11 months
Thanks: 508 time(s)
Russian Federation


Всё портит противный бабский вокал


Thanks:
(1) AHBAnep,
Go to the top of the page
  Insert nick Quick quote
+Quote Post
post May 11 2019, 08:22:29
Post #3

Перевозчик
**************
Group: Металариец
Posts: 2,948
Releases: 0
On Forums: 10 years 10 months
Thanks: 618 time(s)
Russian Federation


Ага, а музыка прям шедевр... (IMG:style_emoticons/default/1488.gif)
Go to the top of the page
  Insert nick Quick quote
+Quote Post
post May 15 2019, 16:53:11
Post #4

Group: Подсевший
Posts: 11
Releases: 0
From: Kyiv
On Forums: 4 years 3 months
Thanks: 0 time(s)
Ukraine


Save Your Mind. Don't listen this music.
Go to the top of the page
  Insert nick Quick quote
+Quote Post

Reply to this topicStart new topic
2 User(s) are reading this topic (2 Guests and 0 Anonymous Users)
0 Members:

 



- Lo-Fi Version Support form
Copyrights and abuse reports form
Time is now: 19th May 2019 - 15:45:01