Welcome Guest ( Log In | Register )

> 

Здесь релизы с живыми прямыми ссылками на lossless

> Stvannyr - Valley Of Shadows (2019), Atmospheric/Post-Black/Doom/Folk Metal
post May 9 2019, 10:43:39
Post #1

Serial Uploader
Group Icon
Group: V.I.P
Posts: 37,112
Releases: 35296
From: Lithuania
On Forums: 11 years 9 months
Thanks: 418227 time(s)
Lithuania


(IMG:https://metalarea.org/images/audiocovers/2019_May/acov_tid321572_thumb.jpg)

*Artist: Stvannyr
*Album: Valley Of Shadows
*Year: 2019
*Genre: Atmospheric/Post-Black/Doom/Folk Metal
*Country: Hungary (IMG:https://metalarea.org/forum/style_images/flags/Hungary.png)
*Format: mp3@CBR320kbps
*Size: 81MB

Tracklist:
01. Mist 02:14
02. Death in the Ravine 05:48
03. Emperor Eagle 05:29
04. Threnody of Wind 04:44
05. Dusk 01:34
06. Wandering Mountains 05:10
07. Stvannyria 04:17
08. Carved upon Black Stone 05:51
******************************
Total playing time: 35:07



(IMG:https://metalarea.org/images/youtube.png)

Technical info
(IMG:https://metalarea.org/images/spectrogram/2019_May/b58817fe962a97172adf123cf284045e.png)
Input File: 02. Death in the Ravine.mp3
Channels : 2
Sample Rate : 44100
Precision : 16-bit
Duration : 00:05:48.78 = 15381330 samples = 26158.7 CDDA sectors
File Size : 14.1M
Bit Rate : 323k
Sample Encoding: MPEG audio (layer I, II or III)
Comments :
Title=Death in the Ravine
Artist=Stvannyr
Album=Valley of Shadows
Tracknumber=2
Year=2019
Discnumber=1



Register


Go to the top of the page
  Insert nick Quick quote
+Quote Post
 
Start new topic
Replies (1 - 2)
post Feb 9 2020, 14:23:10
Post #2

Правь статус, ####!111
**************
Group: Металариец
Posts: 7,471
Releases: 0
From: Москва
On Forums: 10 years 8 months
Thanks: 13939 time(s)
Russian Federation


Перезалейте плз
Go to the top of the page
  Insert nick Quick quote
+Quote Post
post Feb 9 2020, 16:10:50
Post #3


Group Icon
Group: S-moderation team
Posts: 14,867
Releases: 1440
From: Zagreb
On Forums: 9 years 1 month
Thanks: 65285 time(s)
Croatia


Register


This post has been edited by Borderline1991: Feb 9 2020, 18:09:37


Go to the top of the page
  Insert nick Quick quote
+Quote Post

Reply to this topicStart new topic
1 User(s) are reading this topic (1 Guests and 0 Anonymous Users)
0 Members:

 



- Lo-Fi Version Support form
Copyrights and abuse reports form
Time is now: 6th April 2020 - 06:19:38