Welcome Guest ( Log In | Register )

> 

Здесь релизы с живыми прямыми ссылками на lossless

> Avandra - Descender (2019), Progressive Metal/Rock
post May 9 2019, 20:04:17
Post #1

Маньяк
**********
Group: Металариец
Posts: 1,148
Releases: 78
On Forums: 5 years 8 months
Thanks: 2066 time(s)
Unknown


(IMG:http://metalarea.org/images/audiocovers/2019_May/acov_tid321638_thumb.jpg)

*Artist: Avandra
*Album: Descender
*Year: 2019
*Genre: Progressive Metal/Rock
*Country: Puerto Rico (IMG:http://metalarea.org/forum/style_images/flags/Puerto%20Rico.png)
*Format: mp3@CBR320kbps
*Size: 136MB

Tracklist:
01. Beyond The Threshold: Part 1 – Helios Awakens 06:20
02. Beyond The Threshold: Part 2 – Helios Descends 06:09
03. A Decision Must Be Made 06:01
04. The Narrowing of Meaning (feat. Richard Henshall) 11:06
05. Even//You 04:43
06. Adder's Bite 13:13
07. Derelict Minds (feat. Kevin Moore) 07:20
08. Q.E. (feat. Daniel Schwartz) 04:20
******************************
Total playing time: 59:12

Extended info

https://www.metal-archives.com/albums/Avandra/Descender/764599


Technical info
(IMG:http://metalarea.org/images/spectrogram/2019_May/3a4640b5ee3ead2432ce10c165fe98ad.png)
Input File: 04 The Narrowing of Meaning (feat. Richard Henshall).mp3
Channels : 2
Sample Rate : 44100
Precision : 16-bit
Duration : 00:11:06.11 = 29375319 samples = 49958 CDDA sectors
File Size : 26.8M
Bit Rate : 322k
Sample Encoding: MPEG audio (layer I, II or III)
Comments :
Title=The Narrowing of Meaning (feat. Richard Henshall)
Artist=Avandra
Album=Descender
Tracknumber=4
Year=2019



Register


Thanks:
Go to the top of the page
  Insert nick Quick quote
+Quote Post
 
Start new topic
Replies (1 - 1)
post May 10 2019, 07:45:33
Post #2

Наливай!
**************
Group: Металариец
Posts: 5,320
Releases: 27
From: Москва-Бибирево
On Forums: 11 years 3 months
Thanks: 2539 time(s)
Russian Federation


Go to the top of the page
  Insert nick Quick quote
+Quote Post

Reply to this topicStart new topic
1 User(s) are reading this topic (1 Guests and 0 Anonymous Users)
0 Members:

 



- Lo-Fi Version Support form
Copyrights and abuse reports form
Time is now: 18th June 2019 - 18:10:14