Welcome Guest ( Log In | Register )

> Releases Upload / Добавление релизов

Добавить релиз тут / Click here to add release
Рекомендованные обменники / Recommended file shares

> Ærekær - Avindskjold (2019), Black Metal
post May 11 2019, 11:46:52
Post #1

Мегаманьяк
***********
Group: Металариец
Posts: 1,675
Releases: 1318
From: Prešov
On Forums: 5 years 1 month
Thanks: 31500 time(s)
Slovakia


(IMG:http://metalarea.org/images/audiocovers/2019_May/acov_tid321701_thumb.jpg)

*Artist: Ærekær
*Album: Avindskjold
*Year: 2019
*Genre: Black Metal
*Country: Denmark (IMG:http://metalarea.org/forum/style_images/flags/Denmark.png)
*Format: mp3@CBR320kbps
*Size: 75MB

Tracklist:
1. Bøj dig for din ælde 07:12
2. Nævens fejlslag 05:59
3. Efterbyrd 08:28
4. Vingetræk 08:29
******************************
Total playing time: 30:08



Technical info
(IMG:http://metalarea.org/images/spectrogram/2019_May/1b4d0c05359713c892a1a1a5a9fb08d9.png)
Input File: 01. Bøj dig for din ælde.mp3
Channels : 2
Sample Rate : 44100
Precision : 16-bit
Duration : 00:07:12.41 = 19069061 samples = 32430.4 CDDA sectors
File Size : 17.5M
Bit Rate : 324k
Sample Encoding: MPEG audio (layer I, II or III)
Comments :
Title=Bøj dig for din ælde
Artist=Ærekær
Album=Avindskjold
Tracknumber=01/04
Year=2019
Genre=Black Metal



Register


Go to the top of the page
  Insert nick Quick quote
+Quote Post
 
Start new topic
Replies (1 - 4)
post May 11 2019, 15:51:59
Post #2

Detective Godzilla
Group Icon
Group: Moderation team
Posts: 3,021
Releases: 257
On Forums: 8 years 3 months
Thanks: 8473 time(s)
Russian Federation


Отличный материал
Go to the top of the page
  Insert nick Quick quote
+Quote Post
post May 11 2019, 19:10:41
Post #3

I hate you all
***********
Group: Металариец
Posts: 1,978
Releases: 75
From: Ukraine
On Forums: 12 years 1 week
Thanks: 4977 time(s)
Ukraine


Go to the top of the page
  Insert nick Quick quote
+Quote Post
post May 15 2019, 13:29:37
Post #4

Два Литра
**
Group: Завсегдатай
Posts: 139
Releases: 1
On Forums: 11 years 8 months
Thanks: 148 time(s)
Ukraine


Можно другой обменник? Спс.
Go to the top of the page
  Insert nick Quick quote
+Quote Post
post May 17 2019, 23:15:03
Post #5

Два Литра
**
Group: Завсегдатай
Posts: 170
Releases: 0
On Forums: 10 years 3 months
Thanks: 144 time(s)
Ukraine


Register


ЦИТАТА(Road @ May 15 2019, 15:29:37) *
Можно другой обменник? Спс.



Thanks:
Go to the top of the page
  Insert nick Quick quote
+Quote Post

Reply to this topicStart new topic
2 User(s) are reading this topic (2 Guests and 0 Anonymous Users)
0 Members:

 



- Lo-Fi Version Support form
Copyrights and abuse reports form
Time is now: 19th May 2019 - 15:39:46