Welcome Guest ( Log In | Register )

> Releases Upload / Добавление релизов

Добавить релиз тут / Click here to add release
Рекомендованные обменники / Recommended file shares

> Dark Messiah - Echoes Of War (2019), Black Metal
post May 13 2019, 03:17:31
Post #1

Правь статус, ####!111
**************
Group: Металариец
Posts: 3,613
Releases: 849
From: Brazil
On Forums: 7 years 3 months
Thanks: 31780 time(s)
Brazil


(IMG:https://metalarea.org/images/audiocovers/2019_May/acov_tid321770_thumb.jpg)

*Artist: Dark Messiah
*Album: Echoes Of War
*Year: 2019
*Genre: Black Metal
*Country: Greece (IMG:https://metalarea.org/forum/style_images/flags/Greece.png)
*Format: mp3@CBR320kbps
*Size: 71MB

Tracklist:
1. Echoes of War 01:01
2. For Now, I Let You Pray 03:19
3. Covered With Wolfsblood 03:09
4. Blood Red Eyes 03:20
5. Meta Thanaton 03:11
6. To Thanatos 04:59
7. The Dawn of No Mankind 03:53
8. In Memory of Olethros 06:07
9. Of Bloodshed and Slaughter 01:39
******************************
Total playing time: 30:38




Extended info
Drakkar Productions

Dark Messiah is a Hellenic War Black Metal band formed in early 2000.The band's style is fast,aggressive,warlike Black Metal enriched by epic atmospheric passages which create the unique front of combat of Dark Messiah. In 2012 the band suffered a great loss when Olethros (Guitars) had a terrible accident.The remaining three members of Dark Messiah will release his tracks to honor him.

“Echoes of War” is dedicated to our brother
OLETHROS (R.I.P. 1985-2012).

Expect violent,aggressive HELLENIC BLACK METAL..


Technical info
(IMG:https://metalarea.org/images/spectrogram/2019_May/0ec501f1f4e799dab5fe6fb505d893fc.png)
Input File: 09 Of Bloodshed and Slaughter.mp3
Channels : 2
Sample Rate : 44100
Precision : 16-bit
Duration : 00:01:40.08 = 4413528 samples = 7506 CDDA sectors
File Size : 4.00M
Bit Rate : 320k
Sample Encoding: MPEG audio (layer I, II or III)
Comments :
Title=Of Bloodshed and Slaughter
Artist=Dark Messiah
Album=Echoes of War
Tracknumber=9
Year=2019



Register


Go to the top of the page
  Insert nick Quick quote
+Quote Post
 
Start new topic
Replies (1 - 3)
post May 13 2019, 09:46:57
Post #2

MDM-Thrash Metal
**************
Group: Металариец
Posts: 8,033
Releases: 447
From: Одесса
On Forums: 11 years 9 months
Thanks: 14960 time(s)
Ukraine


Register

Отменный сабж! Мне очень понравилось и, как по мне, все же Blackened Thrash


Go to the top of the page
  Insert nick Quick quote
+Quote Post
post May 14 2019, 16:30:31
Post #3

Правь статус, ####!111
**************
Group: Металариец
Posts: 2,376
Releases: 2
From: Dnipro
On Forums: 10 years 10 months
Thanks: 618 time(s)
Ukraine


Очень злобный Black/Thrash Metal (IMG:style_emoticons/default/25.gif)
Go to the top of the page
  Insert nick Quick quote
+Quote Post
post May 15 2019, 14:14:16
Post #4

Три Литра
***
Group: Завсегдатай
Posts: 203
Releases: 0
From: Москва
On Forums: 10 years 8 months
Thanks: 25 time(s)
Russian Federation


Бесовщина (IMG:style_emoticons/default/true_black.gif)
Go to the top of the page
  Insert nick Quick quote
+Quote Post

Reply to this topicStart new topic
2 User(s) are reading this topic (2 Guests and 0 Anonymous Users)
0 Members:

 



- Lo-Fi Version Support form
Copyrights and abuse reports form
Time is now: 19th May 2019 - 15:21:09