Welcome Guest ( Log In | Register )

> Desecrate - Inconsonance (1997), Death/Doom Metal (D16)
post May 13 2019, 16:57:37
Post #1

...
**************
Group: Металариец
Posts: 3,353
Releases: 1425
From: МЕЩЁРА
On Forums: 11 years 6 months
Thanks: 40634 time(s)
Russian Federation


(IMG:http://metalarea.org/images/audiocovers/2019_May/acov_tid321804_thumb.jpg)

*Artist: Desecrate
*Album: Inconsonance
*Year: 1997
*Genre: Death/Doom Metal
*Country: Czech Republic (IMG:http://metalarea.org/forum/style_images/flags/Czech%20Republic.png)
*Format: mp3@CBR320kbps
*Size: 63MB

Tracklist:
1. Foolish Vision? 04:44
2. Angel's Decay... 03:43
3. Irony 03:23
4. I Survived Life 02:46
5. Hallucinations 04:46
6. Intimate Sacrifices 04:48
7. 11 Days 03:55
******************************
Total playing time: 28:05

Extended info


Technical info
(IMG:http://metalarea.org/images/spectrogram/2019_May/79303cfc7730691fa3af0126b0a44764.png)
Input File: 01. Foolish Vision.mp3
Channels : 2
Sample Rate : 44100
Precision : 16-bit
Duration : 00:04:44.07 = 12527531 samples = 21305.3 CDDA sectors
File Size : 11.4M
Bit Rate : 321k
Sample Encoding: MPEG audio (layer I, II or III)
Comments :
Title=Foolish Vision?
Artist=Desecrate
Album=Inconsonance
Tracknumber=01
Year=1997



Register


Go to the top of the page
  Insert nick Quick quote
+Quote Post
 
Start new topic
Replies (1 - 4)
post May 14 2019, 22:16:08
Post #2

Шесть Литров
******
Group: Металариец
Posts: 664
Releases: 0
On Forums: 10 years 6 months
Thanks: 916 time(s)
Russian Federation


Архив выгружается битый.
Go to the top of the page
  Insert nick Quick quote
+Quote Post
post May 15 2019, 03:20:42
Post #3

Grind the Human Scum
*********
Group: Металариец
Posts: 958
Releases: 18
On Forums: 12 years 9 months
Thanks: 898 time(s)
Russian Federation


ЦИТАТА(Lightbringer @ May 15 2019, 00:16:08) *
Архив выгружается битый.

Нет
Go to the top of the page
  Insert nick Quick quote
+Quote Post
post May 15 2019, 12:19:52
Post #4

Правь статус, ####!111
**************
Group: Металариец
Posts: 2,681
Releases: 8
From: Dnipro
On Forums: 11 years 3 months
Thanks: 834 time(s)
Ukraine


ЦИТАТА(Lightbringer @ May 15 2019, 00:16:08) *
Архив выгружается битый.

Зачем ты избил архив спрашивается?
Вроде взрослый малый, а маленьких обижаешь (IMG:style_emoticons/default/1488.gif)
Go to the top of the page
  Insert nick Quick quote
+Quote Post
post Jun 28 2019, 21:38:55
Post #5

Правь статус, ####!111
**************
Group: Металариец
Posts: 43,380
Releases: 654
On Forums: 10 years 4 months
Thanks: 34461 time(s)
Russian Federation


Перепаковал (IMG:style_emoticons/default/smile1.gif)

@320

Register


Thanks:
(1) Sanctus,
Go to the top of the page
  Insert nick Quick quote
+Quote Post

Reply to this topicStart new topic
2 User(s) are reading this topic (2 Guests and 0 Anonymous Users)
0 Members:

 



- Lo-Fi Version Support form
Copyrights and abuse reports form
Time is now: 19th October 2019 - 20:26:31