Welcome Guest ( Log In | Register )

 
Reply to this topicStart new topic
> Gorthaur - Demo '97 [demo] (1997), Death/Doom/Gothic Metal
post May 14 2019, 14:31:59
Post #1

Подвал
**************
Group: Металариец
Posts: 13,548
Releases: 7681
From: Far East (Khabarovsk)
On Forums: 10 years 5 months
Thanks: 73678 time(s)
Russian Federation


(IMG:https://metalarea.org/images/audiocovers/2019_May/acov_tid321833_thumb.jpg)

*Artist: Gorthaur
*Album: Demo '97 [demo]
*Year: 1997
*Genre: Death/Doom/Gothic Metal
*Country: Poland (IMG:https://metalarea.org/forum/style_images/flags/Poland.png)
*Format: mp3@VBR257kbps
*Size: 59MB

Tracklist:
1. Prophecy 03:47
2. Suicide And Hope 05:49
3. Walk In The Clouds 02:26
4. I'm Your Master 07:38
5. To Stay Eternal 04:05
6. A Gift Of The Night 04:31
7. Gorthaur 04:23
******************************
Total playing time: 32:39



Technical info
(IMG:https://metalarea.org/images/spectrogram/2019_May/fa0357305a5ec655a456bff8ffbb8c83.png)
Input File: 02-Suicide And Hope.mp3
Channels : 2
Sample Rate : 44100
Precision : 16-bit
Duration : 00:05:49.31 = 15404527 samples = 26198.2 CDDA sectors
File Size : 11.7M
Bit Rate : 269k
Sample Encoding: MPEG audio (layer I, II or III)
Comments :
Title=Suicide And Hope
Artist=Gorthaur (Pol)
Album=Demo '97
Tracknumber=02
Year=1997
Genre=Metal



Register


Go to the top of the page
  Insert nick Quick quote
+Quote Post

Reply to this topicStart new topic
1 User(s) are reading this topic (1 Guests and 0 Anonymous Users)
0 Members:

 



- Lo-Fi Version Support form
Copyrights and abuse reports form
Time is now: 17th July 2019 - 13:23:59