Welcome Guest ( Log In | Register )

 
Reply to this topicStart new topic
> Gutya - Cumback [ep] (2019), Porno Goregrind
post May 14 2019, 14:38:17
Post #1

Serial Uploader
Group Icon
Group: V.I.P
Posts: 35,608
Releases: 33815
From: Lithuania
On Forums: 11 years 1 month
Thanks: 389391 time(s)
Lithuania


(IMG:https://metalarea.org/images/audiocovers/2019_May/acov_tid321834_thumb.jpg)

*Artist: Gutya
*Album: Cumback [ep]
*Year: 2019
*Genre: Porno Goregrind
*Country: Czech Republic (IMG:https://metalarea.org/forum/style_images/flags/Czech%20Republic.png)
*Format: mp3@CBR320kbps
*Size: 23MB

Tracklist:
01. 90´s Pride Gory Grind 02:09
02. I Still Love You 01:54
03. Slaughterhouse Blues 01:44
04. The Big Snake Ejaculate 02:44
05. Cripple Bitch 01:52
******************************
Total playing time: 10:23



Technical info
(IMG:https://metalarea.org/images/spectrogram/2019_May/6a33193d5ccce2a7b40f3816a778e98c.png)
Input File: 02. I Still Love You.mp3
Channels : 2
Sample Rate : 44100
Precision : 16-bit
Duration : 00:01:54.08 = 5031060 samples = 8556.22 CDDA sectors
File Size : 4.66M
Bit Rate : 327k
Sample Encoding: MPEG audio (layer I, II or III)
Comments :
Title=I Still Love You
Artist=Gutya
Album=Cumback
Tracknumber=2
Year=2019



Register


Thanks:
Go to the top of the page
  Insert nick Quick quote
+Quote Post

Reply to this topicStart new topic
1 User(s) are reading this topic (1 Guests and 0 Anonymous Users)
0 Members:

 



- Lo-Fi Version Support form
Copyrights and abuse reports form
Time is now: 17th July 2019 - 14:04:45