Welcome Guest ( Log In | Register )

> Releases Upload / Добавление релизов

Добавить релиз тут / Click here to add release
Рекомендованные обменники / Recommended file shares

 
Reply to this topicStart new topic
> Gutya - False Friends... [ep] (2017), Porno Goregrind
post May 14 2019, 14:45:27
Post #1

Serial Uploader
Group Icon
Group: V.I.P
Posts: 35,127
Releases: 33345
From: Lithuania
On Forums: 10 years 11 months
Thanks: 382034 time(s)
Lithuania


(IMG:https://metalarea.org/images/audiocovers/2019_May/acov_tid321835_thumb.jpg)

*Artist: Gutya
*Album: False Friends... [ep]
*Year: 2017
*Genre: Porno Goregrind
*Country: Czech Republic (IMG:https://metalarea.org/forum/style_images/flags/Czech%20Republic.png)
*Format: mp3@CBR320kbps
*Size: 19MB

Tracklist:
01. Titti-Tango 02:25
02. Machinegun Mastorbator 02:10
03. Donkey On A Monkey 01:16
04. Goatcode (Feat. Goaty) 01:16
05. Two Happy Girls 01:26
******************************
Total playing time: 8:33



Technical info
(IMG:https://metalarea.org/images/spectrogram/2019_May/650fddd8c489b16f4e66db78e727c7b2.png)
Input File: 02. Machinegun Mastorbator.mp3
Channels : 2
Sample Rate : 44100
Precision : 16-bit
Duration : 00:02:10.57 = 5758005 samples = 9792.53 CDDA sectors
File Size : 5.37M
Bit Rate : 329k
Sample Encoding: MPEG audio (layer I, II or III)
Comments :
Title=Machinegun Mastorbator
Artist=Gutya
Album=False Friends ...
Tracknumber=2
Year=2017



Register


Thanks:
Go to the top of the page
  Insert nick Quick quote
+Quote Post

Reply to this topicStart new topic
1 User(s) are reading this topic (1 Guests and 0 Anonymous Users)
0 Members:

 



- Lo-Fi Version Support form
Copyrights and abuse reports form
Time is now: 19th May 2019 - 15:37:19