Welcome Guest ( Log In | Register )

 
Reply to this topicStart new topic
> Aqueronte - The River Of Melancholy [demo] (2003), Doom/Gothic Metal (D4)
post May 14 2019, 14:58:55
Post #1

Подвал
**************
Group: Металариец
Posts: 13,548
Releases: 7681
From: Far East (Khabarovsk)
On Forums: 10 years 5 months
Thanks: 73678 time(s)
Russian Federation


(IMG:https://metalarea.org/images/audiocovers/2019_May/acov_tid321836_thumb.jpg)

*Artist: Aqueronte
*Album: The River Of Melancholy [demo]
*Year: 2003
*Genre: Doom/Gothic Metal
*Country: Brazil (IMG:https://metalarea.org/forum/style_images/flags/Brazil.png)
*Format: mp3@CBR192kbps
*Size: 29MB

Tracklist:
1. Intro / Solitude 09:43
2. Tears And Blood 06:40
3. Dark Way Of Loneliness 05:12
******************************
Total playing time: 21:35

Extended info
Band from Salvador, Bahia.


Technical info
(IMG:https://metalarea.org/images/spectrogram/2019_May/87d1a6c6d8db5fb8cc783d124c37deec.png)
Input File: 01-Intro-Solitude.mp3
Channels : 2
Sample Rate : 44100
Precision : 16-bit
Duration : 00:09:43.77 = 25744081 samples = 43782.5 CDDA sectors
File Size : 14.0M
Bit Rate : 193k
Sample Encoding: MPEG audio (layer I, II or III)
Comments :
Title=Intro / Solitude
Artist=Aqueronte
Album=The River of Melancholy
Tracknumber=01
Year=2003
Genre=Gothic Doom Metal



Register


Go to the top of the page
  Insert nick Quick quote
+Quote Post

Reply to this topicStart new topic
1 User(s) are reading this topic (1 Guests and 0 Anonymous Users)
0 Members:

 



- Lo-Fi Version Support form
Copyrights and abuse reports form
Time is now: 17th July 2019 - 14:12:33