Welcome Guest ( Log In | Register )

> Releases Upload / Добавление релизов

Добавить релиз тут / Click here to add release
Рекомендованные обменники / Recommended file shares

> Way Out - Wheel Of Time (2018), Heavy Metal
post May 14 2019, 15:00:54
Post #1

Serial Uploader
Group Icon
Group: V.I.P
Posts: 35,127
Releases: 33345
From: Lithuania
On Forums: 10 years 11 months
Thanks: 382035 time(s)
Lithuania


(IMG:https://metalarea.org/images/audiocovers/2019_May/acov_tid321837_thumb.jpg)

*Artist: Way Out
*Album: Wheel Of Time
*Year: 2018
*Genre: Heavy Metal
*Country: Italy (IMG:https://metalarea.org/forum/style_images/flags/Italy.png)
*Format: mp3@CBR320kbps
*Size: 103MB

Tracklist:
01. Born to Fight 04:58
02. Black Stone 05:45
03. Metal Attack 04:39
04. Woman in My Dream 04:26
05. Wheel of Time 04:41
06. The Last Promise 04:18
07. I Don't Believe in My Destiny 05:14
08. Listen 05:47
09. I See the World 05:13
******************************
Total playing time: 45:01




Technical info
(IMG:https://metalarea.org/images/spectrogram/2019_May/a09b12a6f2e784da84ec7fad6c21d34d.png)
Input File: 2 - Black Stone.mp3
Channels : 2
Sample Rate : 44100
Precision : 16-bit
Duration : 00:05:45.07 = 15217587 samples = 25880.2 CDDA sectors
File Size : 13.9M
Bit Rate : 321k
Sample Encoding: MPEG audio (layer I, II or III)
Comments :
Title=Black Stone
Artist=Way Out
Album=Wheel of Time
Tracknumber=2
Year=2019
Genre=Rock/Metal
Discnumber=1



Register


Go to the top of the page
  Insert nick Quick quote
+Quote Post
 
Start new topic
Replies (1 - 2)
post May 15 2019, 10:41:01
Post #2

Два кусочека кавбаски
***
Group: Завсегдатай
Posts: 249
Releases: 29
From: Колыбель металла
On Forums: 11 years 6 months
Thanks: 392 time(s)
Russian Federation


Go to the top of the page
  Insert nick Quick quote
+Quote Post
post May 15 2019, 12:23:24
Post #3

Правь статус, ####!111
**************
Group: Металариец
Posts: 2,376
Releases: 2
From: Dnipro
On Forums: 10 years 10 months
Thanks: 618 time(s)
Ukraine


Да уж (IMG:style_emoticons/default/12.gif) Почти 40 лет играют, а все не в ту степь.


Thanks:
(1) Diflock,
Go to the top of the page
  Insert nick Quick quote
+Quote Post

Reply to this topicStart new topic
1 User(s) are reading this topic (1 Guests and 0 Anonymous Users)
0 Members:

 



- Lo-Fi Version Support form
Copyrights and abuse reports form
Time is now: 19th May 2019 - 15:48:02