Welcome Guest ( Log In | Register )

> Releases Upload / Добавление релизов

Добавить релиз тут / Click here to add release
Рекомендованные обменники / Recommended file shares

 
Reply to this topicStart new topic
> Cokegoat & Barren Heir - Sunshine/Tracing Light [split] (2018), Progressive Sludge/Doom Metal | Sludge/Doom Metal/Post-Metal
post May 14 2019, 15:07:27
Post #1

Мегаманьяк
***********
Group: Металариец
Posts: 1,688
Releases: 140
From: Omsk, Siberia
On Forums: 10 years 1 month
Thanks: 2935 time(s)
Russian Federation


(IMG:https://metalarea.org/images/audiocovers/2019_May/acov_tid321838_thumb.jpg)

*Artist: Cokegoat & Barren Heir
*Album: Sunshine/Tracing Light [split]
*Year: 2018
*Genre: Progressive Sludge/Doom Metal | Sludge/Doom Metal/Post-Metal
*Country: United States (IMG:https://metalarea.org/forum/style_images/flags/United%20States.png) | United States (IMG:https://metalarea.org/forum/style_images/flags/United%20States.png)
*Format: mp3@CBR320kbps
*Size: 98MB

Tracklist:
Cokegoat:
1. Tonight 01:56
2. Rainbow Valley 07:51
3. Night Rainbow 04:23
4. Pig On A Horse 04:36
Barren Heir:
5. Tracing Light I 13:42
6. Tracing Light II 06:39
******************************
Total playing time: 39:09






Extended info
Cokegoat is: Tim Baldwin (bass), Chase Bentley (guitar, vocals), Rebekah Brown (synths, vocals), Ed Nudd (guitar), Jordan Schultz (drums) and Jeff Wojtysiak (guitar, vocals). Additional musicians on Sunshine: Jeremiah Klinger (synthesizers), Andy Nelson (guitar) and Stephen Reichelt (double bass, words and voice).
Barren Heir is: Nick LaRocco (drums), Eddie Limperis (bass, vocals) and David Kirsch (guitars). Additional musician on Tracing Light: Jeremiah Klinger (synthesizers).


Technical info
(IMG:https://metalarea.org/images/spectrogram/2019_May/ed190b9fb840d2f001fc751470593a17.png)
Input File: 03 Cokegoat - Night Rainbow.mp3
Channels : 2
Sample Rate : 44100
Precision : 16-bit
Duration : 00:04:23.80 = 11633536 samples = 19784.9 CDDA sectors
File Size : 10.6M
Bit Rate : 322k
Sample Encoding: MPEG audio (layer I, II or III)
Comments :
Title=Night Rainbow
Artist=Cokegoat
Album=Sunshine
Tracknumber=3
Year=2018
Genre=Sludge/Doom Metal



Register


Thanks:
(1) Rosen,
Go to the top of the page
  Insert nick Quick quote
+Quote Post

Reply to this topicStart new topic
1 User(s) are reading this topic (1 Guests and 0 Anonymous Users)
0 Members:

 



- Lo-Fi Version Support form
Copyrights and abuse reports form
Time is now: 19th May 2019 - 15:20:37