Welcome Guest ( Log In | Register )

> Perky Macabre - By Reason Of Insanity [ep] (2019), Grindcore (D91)
post May 14 2019, 15:13:49
Post #1

Serial Uploader
Group Icon
Group: V.I.P
Posts: 35,608
Releases: 33815
From: Lithuania
On Forums: 11 years 1 month
Thanks: 389391 time(s)
Lithuania


(IMG:https://metalarea.org/images/audiocovers/2019_May/acov_tid321839_thumb.jpg)

*Artist: Perky Macabre
*Album: By Reason Of Insanity [ep]
*Year: 2019
*Genre: Grindcore
*Country: United States (IMG:https://metalarea.org/forum/style_images/flags/United%20States.png)
*Format: mp3@VBR226kbps
*Size: 10MB

Tracklist:
01. Situational Disease 00:41
02. In The Shadows To The Left 00:50
03. Walk And Rot 00:55
04. Betrayed. Bewildered. 00:21
05. Primitive State Of Mind 00:14
06. Egocentric Entanglement 00:24
07. Let's Idealize Each Other 00:13
08. Nonentities In Hell 00:18
09. Fake As Fuck 00:52
******************************
Total playing time: 4:48



Technical info
(IMG:https://metalarea.org/images/spectrogram/2019_May/bab28eb01f82de64b4310bad86477323.png)
Input File: 02. In The Shadows To The Left.mp3
Channels : 2
Sample Rate : 44100
Precision : 16-bit
Duration : 00:00:50.26 = 2216422 samples = 3769.43 CDDA sectors
File Size : 1.61M
Bit Rate : 257k
Sample Encoding: MPEG audio (layer I, II or III)
Comments :
Title=In The Shadows To The Left
Artist=Perky Macabre
Album=By Reason Of Insanity
Tracknumber=2
Year=2019



Register


Thanks:
Go to the top of the page
  Insert nick Quick quote
+Quote Post
 
Start new topic
Replies (1 - 3)
post May 15 2019, 11:43:28
Post #2

Три Литра
***
Group: Завсегдатай
Posts: 279
Releases: 0
On Forums: 8 years 10 months
Thanks: 48 time(s)
Russian Federation


когда же выйдет полноформатник минут на 10 хоть.. (IMG:style_emoticons/default/21.gif)
Go to the top of the page
  Insert nick Quick quote
+Quote Post
post May 15 2019, 15:35:20
Post #3

Правь статус, ####!111
**************
Group: Металариец
Posts: 41,134
Releases: 605
On Forums: 10 years 1 month
Thanks: 31805 time(s)
Russian Federation


ЦИТАТА(thunderbutt @ May 15 2019, 13:43:28) *
когда же выйдет полноформатник минут на 10 хоть.. (IMG:style_emoticons/default/21.gif)


С 17 года скачай все - наскребешь на альбомец. (IMG:style_emoticons/default/1488.gif)


Thanks:
Go to the top of the page
  Insert nick Quick quote
+Quote Post
post May 23 2019, 13:15:34
Post #4

Три Литра
***
Group: Завсегдатай
Posts: 279
Releases: 0
On Forums: 8 years 10 months
Thanks: 48 time(s)
Russian Federation


ЦИТАТА(vosmidesijatye @ May 15 2019, 17:35:20) *
С 17 года скачай все - наскребешь на альбомец. (IMG:style_emoticons/default/1488.gif)

да ну...скорее выйдет the best (IMG:style_emoticons/default/crazy.gif)
Go to the top of the page
  Insert nick Quick quote
+Quote Post

Reply to this topicStart new topic
1 User(s) are reading this topic (1 Guests and 0 Anonymous Users)
0 Members:

 



- Lo-Fi Version Support form
Copyrights and abuse reports form
Time is now: 17th July 2019 - 13:46:35