Welcome Guest ( Log In | Register )

 
Reply to this topicStart new topic
> Idle Threat - Elmo Rocks! [demo] (1987), Heavy/Speed Metal
post May 14 2019, 15:29:58
Post #1

Подвал
**************
Group: Металариец
Posts: 13,548
Releases: 7681
From: Far East (Khabarovsk)
On Forums: 10 years 5 months
Thanks: 73678 time(s)
Russian Federation


(IMG:https://metalarea.org/images/audiocovers/2019_May/acov_tid321840_thumb.png)

*Artist: Idle Threat
*Album: Elmo Rocks! [demo]
*Year: 1987
*Genre: Heavy/Speed Metal
*Country: United States (IMG:https://metalarea.org/forum/style_images/flags/United%20States.png)
*Format: mp3@CBR128kbps (IMG:https://metalarea.org/images/bit_low.gif)
*Size: 12MB

Tracklist:
1. Victim Of Yourself 03:45
2. Run Away 04:06
3. Claws 05:46
******************************
Total playing time: 13:37

Extended info
Band from Long Island City, New York.


Technical info
(IMG:https://metalarea.org/images/spectrogram/2019_May/8828a7e15b9d474d6934d9ef3104cf2c.png)
Input File: 01-Victim of Yourself.mp3
Channels : 2
Sample Rate : 44100
Precision : 16-bit
Duration : 00:03:44.69 = 9908697 samples = 16851.5 CDDA sectors
File Size : 3.59M
Bit Rate : 128k
Sample Encoding: MPEG audio (layer I, II or III)
Comments :
Title=Victim of Yourself
Artist=Idle Threat
Album=Elmo Rocks! [Demo]
Tracknumber=1
Year=1987
Genre=Heavy Metal



Register


Go to the top of the page
  Insert nick Quick quote
+Quote Post

Reply to this topicStart new topic
1 User(s) are reading this topic (1 Guests and 0 Anonymous Users)
0 Members:

 



- Lo-Fi Version Support form
Copyrights and abuse reports form
Time is now: 17th July 2019 - 14:02:39