Welcome Guest ( Log In | Register )

 
Reply to this topicStart new topic
> Aqueronte - A Fallen Divine Mask… [single] (2006), Doom/Gothic Metal (D4)
post May 14 2019, 15:48:16
Post #1

Подвал
**************
Group: Металариец
Posts: 13,548
Releases: 7681
From: Far East (Khabarovsk)
On Forums: 10 years 5 months
Thanks: 73678 time(s)
Russian Federation


(IMG:https://metalarea.org/images/audiocovers/2019_May/acov_tid321841_thumb.jpg)

*Artist: Aqueronte
*Album: A Fallen Divine Mask… [single]
*Year: 2006
*Genre: Doom/Gothic Metal
*Country: Brazil (IMG:https://metalarea.org/forum/style_images/flags/Brazil.png)
*Format: mp3@CBR192kbps
*Size: 38MB

Tracklist:
1. Intro 03:43
2. I'm Goddess 10:18
3. Dark Way Of Loneliness 05:08
4. Blood Roses 09:16
******************************
Total playing time: 28:25

Extended info
Recorded and mixed at Clã Studio in March 2006 by Sidney Falcão and Aqueronte.


Technical info
(IMG:https://metalarea.org/images/spectrogram/2019_May/9db89dce1ef7564b104a55e7e73fa8f0.png)
Input File: 02-I\'m Goddess.mp3
Channels : 2
Sample Rate : 44100
Precision : 16-bit
Duration : 00:10:15.99 = 27165203 samples = 46199.3 CDDA sectors
File Size : 14.8M
Bit Rate : 192k
Sample Encoding: MPEG audio (layer I, II or III)
Comments :
Title=I'm Goddess
Artist=Aqueronte
Album=A Fallen Divine Mask
Tracknumber=2
Year=2007
Genre=Gothic Doom Metal



Register


Go to the top of the page
  Insert nick Quick quote
+Quote Post

Reply to this topicStart new topic
1 User(s) are reading this topic (1 Guests and 0 Anonymous Users)
0 Members:

 



- Lo-Fi Version Support form
Copyrights and abuse reports form
Time is now: 17th July 2019 - 13:29:18