Welcome Guest ( Log In | Register )

 
Reply to this topicStart new topic
> III Kategorija - Demo 2 [demo] (1986), Thrash Metal/Hardcore
post May 14 2019, 15:54:57
Post #1

Подвал
**************
Group: Металариец
Posts: 13,548
Releases: 7681
From: Far East (Khabarovsk)
On Forums: 10 years 5 months
Thanks: 73678 time(s)
Russian Federation


(IMG:https://metalarea.org/images/audiocovers/2019_May/acov_tid321842_thumb.jpg)

*Artist: III Kategorija
*Album: Demo 2 [demo]
*Year: 1986
*Genre: Thrash Metal/Hardcore
*Country: Slovenia (IMG:https://metalarea.org/forum/style_images/flags/Slovenia.png)
*Format: mp3@CBR192kbps
*Size: 9MB

Tracklist:
1. Agresor 03:41
2. Prišel Je S Temo 03:19
******************************
Total playing time: 7:00

Technical info
(IMG:https://metalarea.org/images/spectrogram/2019_May/ef35d19f9512c2e6b9bc016f6d9c83bf.png)
Input File: 01-Agresor.mp3
Channels : 2
Sample Rate : 44100
Precision : 16-bit
Duration : 00:03:42.08 = 9793640 samples = 16655.9 CDDA sectors
File Size : 5.33M
Bit Rate : 192k
Sample Encoding: MPEG audio (layer I, II or III)
Comments :
Title=Agresor
Artist=III Kategorija (Slovenia)
Album=Demo 2
Tracknumber=01
Year=1986
Genre=Thrash Metal



Register


Go to the top of the page
  Insert nick Quick quote
+Quote Post

Reply to this topicStart new topic
1 User(s) are reading this topic (1 Guests and 0 Anonymous Users)
0 Members:

 



- Lo-Fi Version Support form
Copyrights and abuse reports form
Time is now: 17th July 2019 - 14:10:27