Welcome Guest ( Log In | Register )

 
Reply to this topicStart new topic
> Homicide - Time Of Destruction [demo] (1990), Death Metal
post May 14 2019, 16:04:41
Post #1

Подвал
**************
Group: Металариец
Posts: 13,423
Releases: 7601
From: Far East (Khabarovsk)
On Forums: 10 years 3 months
Thanks: 72440 time(s)
Russian Federation


(IMG:https://metalarea.org/images/audiocovers/2019_May/acov_tid321843_thumb.jpg)

*Artist: Homicide
*Album: Time Of Destruction [demo]
*Year: 1990
*Genre: Death Metal
*Country: Chile (IMG:https://metalarea.org/forum/style_images/flags/Chile.png)
*Format: mp3@CBR320kbps
*Size: 27MB

Tracklist:
1. Bloody Night 02:48
2. Homicide 04:59
3. Creature Of Hell 05:41
******************************
Total playing time: 13:28



Extended info
Rehearsal demo.


Technical info
(IMG:https://metalarea.org/images/spectrogram/2019_May/c53404f26c42e9f8e800dd8b52d12569.png)
Input File: 01-Bloody Night.mp3
Channels : 2
Sample Rate : 44100
Precision : 16-bit
Duration : 00:02:48.68 = 7438568 samples = 12650.6 CDDA sectors
File Size : 6.75M
Bit Rate : 320k
Sample Encoding: MPEG audio (layer I, II or III)
Comments :
Title=Bloody Night
Artist=Homicide (Chl)
Album=Time of Destruction (Demo)
Tracknumber=01
Year=1990
Genre=Death Metal



Register


Go to the top of the page
  Insert nick Quick quote
+Quote Post

Reply to this topicStart new topic
1 User(s) are reading this topic (1 Guests and 0 Anonymous Users)
0 Members:

 



- Lo-Fi Version Support form
Copyrights and abuse reports form
Time is now: 19th May 2019 - 15:45:07