Welcome Guest ( Log In | Register )

 
Reply to this topicStart new topic
> Act Of Cruelty - Rebirth [demo] (1994), Heavy Metal
post May 14 2019, 16:23:20
Post #1

Подвал
**************
Group: Металариец
Posts: 13,433
Releases: 7609
From: Far East (Khabarovsk)
On Forums: 10 years 3 months
Thanks: 72547 time(s)
Russian Federation


(IMG:https://metalarea.org/images/audiocovers/2019_May/acov_tid321844_thumb.PNG)

*Artist: Act Of Cruelty
*Album: Rebirth [demo]
*Year: 1994
*Genre: Heavy Metal
*Country: France (IMG:https://metalarea.org/forum/style_images/flags/France.png)
*Format: mp3@CBR256kbps
*Size: 41MB

Tracklist:
1. Welcome 02:28
2. Past Rags 02:34
3. Eternal Fight 03:46
4. A Day 04:05
5. Afore Thou Dost Break Her Virgin Knot 03:34
6. This Time, Pop Is Dead 02:52
7. Messiah Of Room 5 04:24
******************************
Total playing time: 23:43

Technical info
(IMG:https://metalarea.org/images/spectrogram/2019_May/0cda1674a60c49f0a7be128c89b4d452.png)
Input File: 01-Welcome.mp3
Channels : 2
Sample Rate : 44100
Precision : 16-bit
Duration : 00:02:28.07 = 6529667 samples = 11104.9 CDDA sectors
File Size : 4.74M
Bit Rate : 256k
Sample Encoding: MPEG audio (layer I, II or III)
Comments :
Title=Welcome
Artist=Act Of Cruelty (Fra)
Album=Rebirth (Demo)
Tracknumber=01
Year=1994
Genre=Heavy Metal



Register


Go to the top of the page
  Insert nick Quick quote
+Quote Post

Reply to this topicStart new topic
1 User(s) are reading this topic (1 Guests and 0 Anonymous Users)
0 Members:

 



- Lo-Fi Version Support form
Copyrights and abuse reports form
Time is now: 24th May 2019 - 09:18:54