Welcome Guest ( Log In | Register )

> Ravenzang - Uit Een Duister Verleden (2019), Raw Black Metal
post May 14 2019, 18:20:08
Post #1

Правь статус, ####!111
**************
Group: Металариец
Posts: 2,006
Releases: 1586
From: Praha
On Forums: 6 years 1 month
Thanks: 40369 time(s)
Czech Republic


(IMG:http://metalarea.org/images/audiocovers/2019_May/acov_tid321847_thumb.jpg)

*Artist: Ravenzang
*Album: Uit Een Duister Verleden
*Year: 2019
*Genre: Raw Black Metal
*Country: Netherlands (IMG:http://metalarea.org/forum/style_images/flags/Netherlands.png)
*Format: mp3@CBR320kbps
*Size: 68MB

Tracklist:
1. Bloed onder volle maan 05:44
2. Sterbend licht 04:03
3. Verzet van de Falwaz 02:47
4. Terugkeer der tirannie 03:59
5. Heilweg 03:31
6. Woud der schaduwen 03:53
7. Hellevorst 05:19
******************************
Total playing time: 29:16



Extended info
New Era Productions - NEP91


Technical info
(IMG:http://metalarea.org/images/spectrogram/2019_Jun/38a8fa3c92de812bb026a0cc3de816f0.png)
Input File: 01. Bloed Onder Volle Maan.mp3
Channels : 2
Sample Rate : 44100
Precision : 16-bit
Duration : 00:05:44.55 = 15194699 samples = 25841.3 CDDA sectors
File Size : 13.9M
Bit Rate : 322k
Sample Encoding: MPEG audio (layer I, II or III)
Comments :
Title=Bloed Onder Volle Maan
Artist=Ravenzang
Album=Uit Een Duister Verleden
Tracknumber=01/07
Year=2019
Genre=Black Metal


Register


Go to the top of the page
  Insert nick Quick quote
+Quote Post
 
Start new topic
Replies (1 - 5)
post May 14 2019, 19:01:25
Post #2

the faceless one
Group Icon
Group: S-moderation team
Posts: 9,325
Releases: 1924
On Forums: 11 years 9 months
Thanks: 114856 time(s)
Russian Federation


Зеркало:
Register


Thanks:
Go to the top of the page
  Insert nick Quick quote
+Quote Post
post May 14 2019, 19:04:33
Post #3

Правь статус, ####!111
**************
Group: Металариец
Posts: 46,486
Releases: 718
On Forums: 11 years 3 days
Thanks: 39016 time(s)
Russian Federation


@320

Register
Go to the top of the page
  Insert nick Quick quote
+Quote Post
post May 14 2019, 19:34:01
Post #4

Добрейшей души Мегаманьяк
***********
Group: Металариец
Posts: 1,627
Releases: 0
From: Bashkortostan, Өфө
On Forums: 12 years 3 months
Thanks: 725 time(s)
Russian Federation


Каноничненько, но уже не цепляет такое. Почему-то захотелось послушать INQUISITION - пойду слухану.
Go to the top of the page
  Insert nick Quick quote
+Quote Post
post May 19 2019, 17:06:21
Post #5

Маньяк
**********
Group: Металариец
Posts: 1,235
Releases: 0
From: Canada
On Forums: 7 years 6 months
Thanks: 759 time(s)
Canada


Early ODAL vein.
Go to the top of the page
  Insert nick Quick quote
+Quote Post
post Jun 1 2019, 08:58:51
Post #6
BAN
Banned till
Jun 7 2020, 03:30:16



Довольно интересная работа !
Go to the top of the page
  Insert nick Quick quote
+Quote Post

Reply to this topicStart new topic
1 User(s) are reading this topic (1 Guests and 0 Anonymous Users)
0 Members:

 



- Lo-Fi Version Support form
Copyrights and abuse reports form
Time is now: 4th June 2020 - 16:00:33