Welcome Guest ( Log In | Register )

> Releases Upload / Добавление релизов

Добавить релиз тут / Click here to add release
Рекомендованные обменники / Recommended file shares

> Ravenzang - Uit Een Duister Verleden (2019), Raw Black Metal
post May 14 2019, 18:20:08
Post #1

Мегаманьяк
***********
Group: Металариец
Posts: 1,675
Releases: 1318
From: Prešov
On Forums: 5 years 1 month
Thanks: 31501 time(s)
Slovakia


(IMG:http://metalarea.org/images/audiocovers/2019_May/acov_tid321847_thumb.jpg)

*Artist: Ravenzang
*Album: Uit Een Duister Verleden
*Year: 2019
*Genre: Raw Black Metal
*Country: Netherlands (IMG:http://metalarea.org/forum/style_images/flags/Netherlands.png)
*Format: mp3@CBR320kbps
*Size: 68MB

Tracklist:
1. Bloed onder volle maan 05:44
2. Sterbend licht 04:03
3. Verzet van de Falwaz 02:47
4. Terugkeer der tirannie 03:59
5. Heilweg 03:31
6. Woud der schaduwen 03:53
7. Hellevorst 05:19
******************************
Total playing time: 29:16



Extended info
New Era Productions - NEP91


Technical info
(IMG:http://metalarea.org/images/spectrogram/2019_May/d6ef5efa5ce5c631d14cb9fb423a244d.png)
Input File: 01. Bloed Onder Volle Maan.mp3
Channels : 2
Sample Rate : 44100
Precision : 16-bit
Duration : 00:05:44.51 = 15192935 samples = 25838.3 CDDA sectors
File Size : 13.9M
Bit Rate : 322k
Sample Encoding: MPEG audio (layer I, II or III)
Comments :
Title=Bloed Onder Volle Maan
Artist=Ravenzang
Album=Uit Een Duister Verleden
Tracknumber=01/07
Year=2019
Genre=Black Metal



Register


Go to the top of the page
  Insert nick Quick quote
+Quote Post
 
Start new topic
Replies (1 - 3)
post May 14 2019, 19:01:25
Post #2

the faceless one
Group Icon
Group: S-moderation team
Posts: 9,010
Releases: 1783
On Forums: 10 years 9 months
Thanks: 105352 time(s)
Russian Federation


Зеркало:
Register


Thanks:
(2) suseka, ZambuL,
Go to the top of the page
  Insert nick Quick quote
+Quote Post
post May 14 2019, 19:04:33
Post #3
BAN
Banned till
Jun 15 2019, 17:50:12



@320

Register
Go to the top of the page
  Insert nick Quick quote
+Quote Post
post May 14 2019, 19:34:01
Post #4

Маньяк
**********
Group: Металариец
Posts: 1,363
Releases: 0
On Forums: 11 years 3 months
Thanks: 559 time(s)
Russian Federation


Каноничненько, но уже не цепляет такое. Почему-то захотелось послушать INQUISITION - пойду слухану.
Go to the top of the page
  Insert nick Quick quote
+Quote Post

Reply to this topicStart new topic
1 User(s) are reading this topic (1 Guests and 0 Anonymous Users)
0 Members:

 



- Lo-Fi Version Support form
Copyrights and abuse reports form
Time is now: 19th May 2019 - 16:06:50