Welcome Guest ( Log In | Register )

> Releases Upload / Добавление релизов

Добавить релиз тут / Click here to add release
Рекомендованные обменники / Recommended file shares

 
Reply to this topicStart new topic
> Necnon Mortuss - Válečné Konflikty 20. Století (2018), Black/Death Metal
post May 14 2019, 19:29:39
Post #1

Правь статус, ####!111
**************
Group: Металариец
Posts: 16,984
Releases: 11527
From: Г.Харьков
On Forums: 7 years 1 week
Thanks: 192455 time(s)
Unknown


(IMG:http://metalarea.org/images/audiocovers/2019_May/acov_tid321850_thumb.jpg)

*Artist: Necnon Mortuss
*Album: Válečné Konflikty 20. Století
*Year: 2018
*Genre: Black/Death Metal
*Country: Czech Republic (IMG:http://metalarea.org/forum/style_images/flags/Czech%20Republic.png)
*Format: mp3@CBR320kbps
*Size: 100MB

Tracklist:
1. Jízda tanků 00:52 instrumental
2. Bitva v Ardenách 05:57
3. Peklo u Kurska 05:03
4. Šestidenní válka 06:11
5. Bitva na Sommě 06:46
6. Operace Pouštní bouře 05:04
7. Karpatsko-dukelská operace 02:42
8. Smrt ve Vietnamu 05:33
9. Kosovo 04:18
******************************
Total playing time: 42:26

Preview 1

Extended info
Luban Guitars
Blackota Vocals
Hamr Drums
Milan "Ilfiren" Stieranka Bass, Vocals (backing)


Technical info
(IMG:http://metalarea.org/images/spectrogram/2019_May/445892ae84dd52b235fcc3a92b061a37.png)
Input File: 03 - Peklo u kurska.mp3
Channels : 2
Sample Rate : 44100
Precision : 16-bit
Duration : 00:05:03.90 = 13401946 samples = 22792.4 CDDA sectors
File Size : 12.4M
Bit Rate : 327k
Sample Encoding: MPEG audio (layer I, II or III)
Comments :
Title=Peklo u kurska
Artist=Necnon Mortuss
Album=Válečné konflikty 20. Století
Tracknumber=3
Year=2018



Register


Go to the top of the page
  Insert nick Quick quote
+Quote Post

Reply to this topicStart new topic
1 User(s) are reading this topic (1 Guests and 0 Anonymous Users)
0 Members:

 



- Lo-Fi Version Support form
Copyrights and abuse reports form
Time is now: 19th May 2019 - 16:40:23