Welcome Guest ( Log In | Register )

> Letheria - Death - Principle (2018), Black/Death Metal
post May 14 2019, 19:45:39
Post #1

Правь статус, ####!111
**************
Group: Металариец
Posts: 17,750
Releases: 12037
From: Г.Харьков
On Forums: 7 years 2 months
Thanks: 202116 time(s)
Unknown


(IMG:http://metalarea.org/images/audiocovers/2019_May/acov_tid321852_thumb.jpg)

*Artist: Letheria
*Album: Death - Principle
*Year: 2018
*Genre: Black/Death Metal
*Country: Finland (IMG:http://metalarea.org/forum/style_images/flags/Finland.png)
*Format: mp3@CBR320kbps
*Size: 103MB

Tracklist:
1. Inverted Rapture 04:02
2. Swinelord of Devouring and Fuckin 03:54
3. One Spit of a Thousand Swears 04:17
4. Pestchrist 04:09
5. Call The Horns 04:57
6. Death Hand Path 04:08
7. The Kingdom in Coffins of Kings 04:32
8. Malaria Magdalena 04:06
9. With Tears of Urine You Will Cry 03:07
10. Fire Speaks 04:08
11. Rotting God 03:44
******************************
Total playing time: 45:04




Extended info
M. Pellinen Vocals, Guitars
V. Pelkonen Bass
E. Wuokko Drums
A. Martin Guitars


Technical info
(IMG:http://metalarea.org/images/spectrogram/2019_May/059fab28c0eecc556d73eee936a721bd.png)
Input File: 05 Call The Horns.mp3
Channels : 2
Sample Rate : 44100
Precision : 16-bit
Duration : 00:04:56.82 = 13089718 samples = 22261.4 CDDA sectors
File Size : 11.9M
Bit Rate : 320k
Sample Encoding: MPEG audio (layer I, II or III)
Comments :
Title=Call The Horns
Artist=Letheria
Album=Death - Principle
Tracknumber=5
Year=2018



Register


Go to the top of the page
  Insert nick Quick quote
+Quote Post
 
Start new topic
Replies (1 - 1)
post May 15 2019, 19:20:35
Post #2

Правь статус, ####!111
**************
Group: Металариец
Posts: 17,750
Releases: 12037
From: Г.Харьков
On Forums: 7 years 2 months
Thanks: 202116 time(s)
Unknown


Cloud Mail 320
Register


Go to the top of the page
  Insert nick Quick quote
+Quote Post

Reply to this topicStart new topic
1 User(s) are reading this topic (1 Guests and 0 Anonymous Users)
0 Members:

 



- Lo-Fi Version Support form
Copyrights and abuse reports form
Time is now: 17th July 2019 - 13:20:53