Welcome Guest ( Log In | Register )

> Releases Upload / Добавление релизов

Добавить релиз тут / Click here to add release
Рекомендованные обменники / Recommended file shares

 
Reply to this topicStart new topic
> Dipygus - Deathooze (2019), Old School Death Metal
post May 14 2019, 21:46:07
Post #1

Правь статус, ####!111
**************
Group: Металариец
Posts: 17,032
Releases: 11560
From: Г.Харьков
On Forums: 7 years 1 week
Thanks: 193083 time(s)
Unknown


(IMG:http://metalarea.org/images/audiocovers/2019_May/acov_tid321860_thumb.jpg)

*Artist: Dipygus
*Album: Deathooze
*Year: 2019
*Genre: Old School Death Metal
*Country: United States (IMG:http://metalarea.org/forum/style_images/flags/United%20States.png)
*Format: mp3@CBR320kbps
*Size: 79MB

Tracklist:
1. Pt. Pleasant, WV 1967 06:32
2. Mekong Maneater 05:15
3. Corpseflower 04:27
4. Cyclopia 01:20
5. Deloy's Ape 05:34
6. Coffin Stain 04:01
7. Angillas: Killer of the Living 06:52
******************************
Total playing time: 34:01




Extended info
Dayan Bass, Vocals (backing)
Sam Drums
Dustin Guitars
Clarisa Vocals


Technical info
(IMG:http://metalarea.org/images/spectrogram/2019_May/d7467c04a180934a8750c0815d066b21.png)
Input File: 03 Corpseflower.mp3
Channels : 2
Sample Rate : 44100
Precision : 16-bit
Duration : 00:04:26.62 = 11757942 samples = 19996.5 CDDA sectors
File Size : 10.8M
Bit Rate : 325k
Sample Encoding: MPEG audio (layer I, II or III)
Comments :
Title=Corpseflower
Artist=Dipygus
Album=Deathooze
Tracknumber=3
Year=2019



Register


Go to the top of the page
  Insert nick Quick quote
+Quote Post

Reply to this topicStart new topic
1 User(s) are reading this topic (1 Guests and 0 Anonymous Users)
0 Members:

 



- Lo-Fi Version Support form
Copyrights and abuse reports form
Time is now: 24th May 2019 - 07:50:16