Welcome Guest ( Log In | Register )

> Dipygus - Deathooze (2019), Old School Death Metal
post May 14 2019, 21:46:07
Post #1

Правь статус, ####!111
**************
Group: Металариец
Posts: 18,201
Releases: 12307
From: Г.Харьков
On Forums: 7 years 3 months
Thanks: 207534 time(s)
Unknown


(IMG:http://metalarea.org/images/audiocovers/2019_May/acov_tid321860_thumb.jpg)

*Artist: Dipygus
*Album: Deathooze
*Year: 2019
*Genre: Old School Death Metal
*Country: United States (IMG:http://metalarea.org/forum/style_images/flags/United%20States.png)
*Format: mp3@CBR320kbps
*Size: 79MB

Tracklist:
1. Pt. Pleasant, WV 1967 06:32
2. Mekong Maneater 05:15
3. Corpseflower 04:27
4. Cyclopia 01:20
5. Deloy's Ape 05:34
6. Coffin Stain 04:01
7. Angillas: Killer of the Living 06:52
******************************
Total playing time: 34:01




Extended info
Dayan Bass, Vocals (backing)
Sam Drums
Dustin Guitars
Clarisa Vocals


Technical info
(IMG:http://metalarea.org/images/spectrogram/2019_May/d7467c04a180934a8750c0815d066b21.png)
Input File: 03 Corpseflower.mp3
Channels : 2
Sample Rate : 44100
Precision : 16-bit
Duration : 00:04:26.62 = 11757942 samples = 19996.5 CDDA sectors
File Size : 10.8M
Bit Rate : 325k
Sample Encoding: MPEG audio (layer I, II or III)
Comments :
Title=Corpseflower
Artist=Dipygus
Album=Deathooze
Tracknumber=3
Year=2019



Register


Go to the top of the page
  Insert nick Quick quote
+Quote Post
 
Start new topic
Replies (1 - 6)
post Jul 30 2019, 15:50:50
Post #2

Четыре Литра
****
Group: Металариец
Posts: 378
Releases: 0
From: германия
On Forums: 10 years 8 months
Thanks: 130 time(s)
Russian Federation


Отлично играют , хорошая Дезяра !


Thanks:
Go to the top of the page
  Insert nick Quick quote
+Quote Post
post Jul 30 2019, 16:40:04
Post #3

Мегаманьяк
***********
Group: Металариец
Posts: 1,778
Releases: 0
From: Украина
On Forums: 10 years 7 months
Thanks: 990 time(s)
Ukraine


Очень интересно так встретились Каркасс и Аутопси, вокал психобольнушный, хмуроватый, молодчина Clarisa, бурботит так из подвальчика, когда замедляются я вообще в восторге, потом тут же в разгон и соляга, вставки из фильмов дополняют психушку. Думаю лично мне надо послушать это без всяких посторонних семейных шумов, выберу время и займусь. Но меня зацепило и настроило на обязательную прослушку, ОБЯЗАТЕЛЬНУЮЮЮЮЮЮЮЮЮЮ. Лично для меня. Моя тема... Ещё если честно немного напомнило Swallowed - Lunarterial вот эту штуку местами. Короче надо слушать.
Go to the top of the page
  Insert nick Quick quote
+Quote Post
post Jul 30 2019, 16:47:08
Post #4

Правь статус, ####!111
**************
Group: Металариец
Posts: 42,462
Releases: 644
On Forums: 10 years 2 months
Thanks: 33334 time(s)
Russian Federation


ЦИТАТА(troll_swamp @ Jul 30 2019, 19:40:04) *
Swallowed - Lunarterial
Не ожидал, что ты такую сырь слушаешь и котируешь (IMG:style_emoticons/default/9.gif)

Go to the top of the page
  Insert nick Quick quote
+Quote Post
post Jul 30 2019, 16:52:56
Post #5

Мегаманьяк
***********
Group: Металариец
Posts: 1,778
Releases: 0
From: Украина
On Forums: 10 years 7 months
Thanks: 990 time(s)
Ukraine


ЦИТАТА(vosmidesijatye @ Jul 30 2019, 18:47:08) *
Не ожидал, что ты такую сырь слушаешь и котируешь (IMG:style_emoticons/default/9.gif)

ты же мне вроде спасибки в той теме ставил) забыл? или всё смешалось в доме Яблонских) (IMG:style_emoticons/default/9.gif)
Go to the top of the page
  Insert nick Quick quote
+Quote Post
post Jul 30 2019, 16:58:22
Post #6

Правь статус, ####!111
**************
Group: Металариец
Posts: 42,462
Releases: 644
On Forums: 10 years 2 months
Thanks: 33334 time(s)
Russian Federation


ЦИТАТА(troll_swamp @ Jul 30 2019, 19:52:56) *
ты же мне вроде спасибки в той теме ставил) забыл? или всё смешалось в доме Яблонских) (IMG:style_emoticons/default/9.gif)


Вас столько - всех и вся, все смсы ваши не упомнишь (IMG:style_emoticons/default/1488.gif)
Go to the top of the page
  Insert nick Quick quote
+Quote Post
post Jul 30 2019, 17:02:23
Post #7

Мегаманьяк
***********
Group: Металариец
Posts: 1,778
Releases: 0
From: Украина
On Forums: 10 years 7 months
Thanks: 990 time(s)
Ukraine


ЦИТАТА(vosmidesijatye @ Jul 30 2019, 18:58:22) *
Вас столько - всех и вся, все смсы ваши не упомнишь (IMG:style_emoticons/default/1488.gif)

думаю надо отдыхать от этого форума иногда, а то от этой писанины во всех темах сразу можно и мозгом повредиться) (IMG:style_emoticons/default/9.gif)


Thanks:
Go to the top of the page
  Insert nick Quick quote
+Quote Post

Reply to this topicStart new topic
1 User(s) are reading this topic (1 Guests and 0 Anonymous Users)
0 Members:

 



- Lo-Fi Version Support form
Copyrights and abuse reports form
Time is now: 24th August 2019 - 12:04:14