Welcome Guest ( Log In | Register )

> И неформату есть предел.

Рэп/хип-хоп/шансон/поп удаляются. Для них есть свои порталы.

> El Altar Del Holocausto - -I T- (2019), Post-Metal/Experimental
post May 14 2019, 21:59:26
Post #1

Четыре Литра
****
Group: Металариец
Posts: 332
Releases: 10
On Forums: 10 years 3 months
Thanks: 231 time(s)
United Kingdom


(IMG:http://metalarea.org/images/audiocovers/2019_May/acov_tid321861_thumb.jpg)

*Artist: El Altar Del Holocausto
*Album: -I T-
*Year: 2019
*Genre: Post-Metal/Experimental
*Country: Spain (IMG:http://metalarea.org/forum/style_images/flags/Spain.png)
*Format: mp3@CBR320kbps
*Size: 90MB

Tracklist:
1. I · Because evident is God’s wrath from heaven against all impiety and injustice of men, that they stop the truth with injustice. 4:18
2. II · Love your enemies, do good to those who hate you, bless those who curse you, pray for those who insult you. If someone hits you on one cheek, offer them the other one. 7:00
3. III · Moses stretched out his hand over the sea, and the Lord, by means of a strong Eastern wind throughout the night, He caused the sea to retreat, and changed the sea into dry land. Thus the waters were divided. 5:42
4. IV · I have seen his ways, but I will heal him; I will guide him and give him comfort and those who cry with him, I have also given you clean teeth in all your cities, and lack of bread in all your places; but you have not turned against me. 6:51
5. V · From the Heart of Jesus opened on the cross, the man with the new heart is born. Lord Jesus, give me a new heart made in the image of yours, infuse a new spirit in the depths of my being, that keeps me open to God, our Father, and available to those who share with me the way of life. 5:29
6. VI ·They took off his clothes and put a scarlet mantle on him. Then they braided a crown of thorns and placed it on his head. Kneeling before him, they mocked, saying "Hail, King of the Jews!". There is no good tree that can bear bad fruit, nor bad tree that can bear good fruit. 10:09
******************************
Total playing time: 39:29



Technical info
(IMG:http://metalarea.org/images/spectrogram/2019_May/d47de8363a4eaadbc7fe76242840361c.png)
Input File: EL ALTAR DEL HOLOCAUSTO - I.mp3
Channels : 2
Sample Rate : 44100
Precision : 16-bit
Duration : 00:04:18.42 = 11396322 samples = 19381.5 CDDA sectors
File Size : 10.3M
Bit Rate : 320k
Sample Encoding: MPEG audio (layer I, II or III)
Comments :
Title=I · Because Evident Is God’s Wrath From Heaven Against All Impiety And Injustice Of Men, That They Stop The Truth With Injustice.
Artist=El Altar Del Holocausto
Album=-I T-
Tracknumber=1
Year=2019



Register


Go to the top of the page
  Insert nick Quick quote
+Quote Post
 
Start new topic
Replies (1 - 1)
post May 15 2019, 14:05:28
Post #2

Два Литра
**
Group: Завсегдатай
Posts: 191
Releases: 0
On Forums: 13 years 4 months
Thanks: 23 time(s)
Russian Federation


Nice song titles! Cheers! (IMG:style_emoticons/default/18.gif)
Go to the top of the page
  Insert nick Quick quote
+Quote Post

Reply to this topicStart new topic
1 User(s) are reading this topic (1 Guests and 0 Anonymous Users)
0 Members:

 



- Lo-Fi Version Support form
Copyrights and abuse reports form
Time is now: 16th June 2019 - 08:11:56