Welcome Guest ( Log In | Register )

> И неформату есть предел.

Рэп/хип-хоп/шансон/поп удаляются. Для них есть свои порталы.

 
Reply to this topicStart new topic
> Green Lung - Woodland Rites (2019), Psychedelic Stoner Rock
post May 14 2019, 22:34:26
Post #1

Четыре Литра
****
Group: Металариец
Posts: 332
Releases: 10
On Forums: 10 years 3 months
Thanks: 231 time(s)
United Kingdom


(IMG:http://metalarea.org/images/audiocovers/2019_May/acov_tid321862_thumb.jpg)

*Artist: Green Lung
*Album: Woodland Rites
*Year: 2019
*Genre: Psychedelic Stoner Rock
*Country: United Kingdom (IMG:http://metalarea.org/forum/style_images/flags/United%20Kingdom.png)
*Format: mp3@CBR320kbps
*Size: 97MB

Tracklist:
1. Initiation 2:33
2. Woodland Rites 4:33
3. Let the Devil In 5:00
4. The Ritual Tree 6:48
5. Templar Dawn 5:41
6. Call of the Coven 4:44
7. May Queen 6:41
8. Into the Wild 6:50
******************************
Total playing time: 42:50



Technical info
(IMG:http://metalarea.org/images/spectrogram/2019_May/994d861c7f08d6b3b0100b6d59e92da5.png)
Input File: 02 - Woodland Rites.mp3
Channels : 2
Sample Rate : 44100
Precision : 16-bit
Duration : 00:04:33.81 = 12074889 samples = 20535.5 CDDA sectors
File Size : 11.1M
Bit Rate : 324k
Sample Encoding: MPEG audio (layer I, II or III)
Comments :
Title=Woodland Rites
Artist=Green Lung
Album=Woodland Rites
Tracknumber=02
Year=2019
Genre=Psychedelic Stoner Rock



Register


Go to the top of the page
  Insert nick Quick quote
+Quote Post

Reply to this topicStart new topic
1 User(s) are reading this topic (1 Guests and 0 Anonymous Users)
0 Members:

 



- Lo-Fi Version Support form
Copyrights and abuse reports form
Time is now: 18th June 2019 - 05:41:51