Welcome Guest ( Log In | Register )

> Beltane - The Tales Of Pantheon (2019), Heavy Metal (D17)
post May 15 2019, 01:26:54
Post #1

Правь статус, ####!111
**************
Group: Металариец
Posts: 18,201
Releases: 12307
From: Г.Харьков
On Forums: 7 years 3 months
Thanks: 207549 time(s)
Unknown


(IMG:http://metalarea.org/images/audiocovers/2019_May/acov_tid321863_thumb.jpg)

*Artist: Beltane
*Album: The Tales Of Pantheon
*Year: 2019
*Genre: Heavy Metal
*Country: Brazil (IMG:http://metalarea.org/forum/style_images/flags/Brazil.png)
*Format: mp3@CBR320kbps
*Size: 107MB

Tracklist:
1. Dominus Metallum (Prelude) 01:15
2. Following the Goat 06:19
3. Athena 05:23
4. Belenus 04:57
5. Faster Than All 04:31
6. Goddess of Seed 04:57
7. Queen of Beasts 03:55
8. Glory of Mars 04:19
9. The King of the Seas 05:34
10. God of Thunder 04:45
******************************
Total playing time: 45:55



Extended info
Claiton Langner Bass
Marcelo Ferrasa Drums
Guilherme Silva Guitars (?-2015, 2017-present)
See also: ex-Dying Embers, ex-Silent Sky
JP Vocals (2017-present)


Technical info
(IMG:http://metalarea.org/images/spectrogram/2019_May/3318097caf30470d8ed371cd029d19ad.png)
Input File: 03 - Athena.mp3
Channels : 2
Sample Rate : 44100
Precision : 16-bit
Duration : 00:05:22.94 = 14241786 samples = 24220.7 CDDA sectors
File Size : 13.2M
Bit Rate : 326k
Sample Encoding: MPEG audio (layer I, II or III)
Comments :
Title=Athena
Artist=Beltane
Album=Tales of Pantheon
Tracknumber=3
Year=2019



Register


Go to the top of the page
  Insert nick Quick quote
+Quote Post
 
Start new topic
Replies (1 - 2)
post May 15 2019, 10:32:15
Post #2

MDM-Thrash Metal
**************
Group: Металариец
Posts: 8,564
Releases: 570
From: Одесса
On Forums: 12 years 1 week
Thanks: 16649 time(s)
Ukraine


...Лет на 20 опаздали с альбомом, да и по стилю скорее павер.
Go to the top of the page
  Insert nick Quick quote
+Quote Post
post May 15 2019, 19:23:02
Post #3

Правь статус, ####!111
**************
Group: Металариец
Posts: 18,201
Releases: 12307
From: Г.Харьков
On Forums: 7 years 3 months
Thanks: 207549 time(s)
Unknown


Cloud Mail 320
Register


Thanks:
(1) Mogozoz,
Go to the top of the page
  Insert nick Quick quote
+Quote Post

Reply to this topicStart new topic
1 User(s) are reading this topic (1 Guests and 0 Anonymous Users)
0 Members:

 



- Lo-Fi Version Support form
Copyrights and abuse reports form
Time is now: 24th August 2019 - 13:08:13