Welcome Guest ( Log In | Register )

 
Reply to this topicStart new topic
> Luicidal - Luicidal (2014), Crossover Thrash/Punk Rock
post May 15 2019, 03:16:09
Post #1

Пять Литров
*****
Group: Металариец
Posts: 431
Releases: 88
On Forums: 5 months 2 weeks
Thanks: 862 time(s)
Canada


(IMG:http://metalarea.org/images/audiocovers/2019_May/acov_tid321864_thumb.jpg)

*Artist: Luicidal
*Album: Luicidal
*Year: 2014
*Genre: Crossover Thrash/Punk Rock
*Country: United States (IMG:http://metalarea.org/forum/style_images/flags/United%20States.png)
*Format: mp3@CBR320kbps
*Size: 67MB

Tracklist:
1. Westside Familia 01:58
2. Green Light 01:28
3. Killing Skating Machine 02:01
4. Kumbaya (Feat. ''H.R.'' Of Bad Brains) 03:03
5. Live For Today 02:18
6. Kumbaya 03:20
7. Changed World 03:43
8. You Always Knew 00:59
9. Knife Fight 02:39
10. Mexican Crabs 01:37
11. Sinister Love 01:36
12. Least To Succeed 04:18
******************************
Total playing time: 29:00

Extended info
Venice, California

Associated acts: Suicidal Tendencies

https://en.wikipedia.org/wiki/Luicidal

The band consists of Mando Ochoa (vocals), Marty Ramirez (guitar), Louiche Mayorga (bass), RJ Herrera (drums) and Vince Sollecito (tour drums) and Mike Avilez (tour vocals).

Bassist Louiche Mayorga decided to form Luicidal with his former Suicidal Tendencies bandmate R.J. Herrera after he missed "being on the stage as an artist".
In order to put the band together, they were joined by Mando Ochoa (Sick Sense) on vocals and Ricky Reynaga (Rated X, Rolling Papers and Sancho's Revenge) on guitar.
Luicidal performs songs from Suicidal Tendencies' first three studio albums, Suicidal Tendencies, Join the Army and How Will I Laugh Tomorrow When I Can't Even Smile Today;
the first two featured Mayorga on bass, while the last two featured Herrera on drums.


Technical info
(IMG:http://metalarea.org/images/spectrogram/2019_May/ff2cf85b66d4e19b53cb6adafe8a15f2.png)
Input File: 1. Westside Familia.mp3
Channels : 2
Sample Rate : 44100
Precision : 16-bit
Duration : 00:01:58.08 = 5207284 samples = 8855.93 CDDA sectors
File Size : 4.73M
Bit Rate : 320k
Sample Encoding: MPEG audio (layer I, II or III)
Comments :
Title=Westside Familia
Artist=Luicidal
Album=Luicidal
Tracknumber=1
Year=2014
Genre=Crossover



Register


Thanks:
Go to the top of the page
  Insert nick Quick quote
+Quote Post

Reply to this topicStart new topic
1 User(s) are reading this topic (1 Guests and 0 Anonymous Users)
0 Members:

 



- Lo-Fi Version Support form
Copyrights and abuse reports form
Time is now: 17th July 2019 - 13:30:14