Welcome Guest ( Log In | Register )

 
Reply to this topicStart new topic
> Knightrider - Nightrider [demo] (1984), Nwobhm
post May 15 2019, 03:30:19
Post #1

Пять Литров
*****
Group: Металариец
Posts: 431
Releases: 88
On Forums: 5 months 2 weeks
Thanks: 862 time(s)
Canada


(IMG:https://metalarea.org/images/audiocovers/2019_May/acov_tid321865.png)

*Artist: Knightrider
*Album: Nightrider [demo]
*Year: 1984
*Genre: Nwobhm
*Country: United Kingdom (IMG:https://metalarea.org/forum/style_images/flags/United%20Kingdom.png)
*Format: mp3@CBR192kbps
*Size: 24MB

Tracklist:
1. Knightrider 04:54
2. Extraterrestrial Girl 04:45
3. Mr Big 04:15
4. Something in Return 03:48
******************************
Total playing time: 17:42



Technical info
(IMG:https://metalarea.org/images/spectrogram/2019_May/f9706c3a7e397974822ae11ba321cb5a.png)
Input File: 1. Knightrider.mp3
Channels : 2
Sample Rate : 44100
Precision : 16-bit
Duration : 00:04:54.67 = 12994947 samples = 22100.2 CDDA sectors
File Size : 7.07M
Bit Rate : 192k
Sample Encoding: MPEG audio (layer I, II or III)
Comments :
Title=Knightrider
Artist=Knightrider
Album=1984 Demo
Tracknumber=1
Year=1984
Genre=NWOBHM



Register


Go to the top of the page
  Insert nick Quick quote
+Quote Post

Reply to this topicStart new topic
1 User(s) are reading this topic (1 Guests and 0 Anonymous Users)
0 Members:

 



- Lo-Fi Version Support form
Copyrights and abuse reports form
Time is now: 17th July 2019 - 14:11:27