Welcome Guest ( Log In | Register )

> Releases Upload / Добавление релизов

Добавить релиз тут / Click here to add release
Рекомендованные обменники / Recommended file shares

 
Reply to this topicStart new topic
> Paramorpheus - The First Rebellion (2019), Progressive Death Metal
post May 15 2019, 03:57:35
Post #1

Правь статус, ####!111
**************
Group: Металариец
Posts: 16,984
Releases: 11527
From: Г.Харьков
On Forums: 7 years 1 week
Thanks: 192452 time(s)
Unknown


(IMG:http://metalarea.org/images/audiocovers/2019_May/acov_tid321866_thumb.jpg)

*Artist: Paramorpheus
*Album: The First Rebellion
*Year: 2019
*Genre: Progressive Death Metal
*Country: United States (IMG:http://metalarea.org/forum/style_images/flags/United%20States.png)
*Format: mp3@CBR320kbps
*Size: 118MB

Tracklist:
1. Destinies Ride 08:22
2. The Grand Conqueror 04:57
3. Martyrs of a Hopeless Cause 08:34
4. Those Who Serve... 02:52
5. Brothers in Arms 08:15
6. Conquest (Instrumental) 06:49
7. Sentinels of the Storm 11:18
******************************
Total playing time: 51:07



Extended info
Isaiah Kaiver- Vocals/ Guitar
Mitchell Lawton- Vocals/ Guitar
Zachary "Walrus" Urmanski- Vocals/Drums
Will Elliott-Bass



Technical info
(IMG:http://metalarea.org/images/spectrogram/2019_May/5c19b00b0fd21b5cff1bc10932ba2b2c.png)
Input File: 03 - Martyrs of a Hopeless Cause.mp3
Channels : 2
Sample Rate : 44100
Precision : 16-bit
Duration : 00:08:35.19 = 22719835 samples = 38639.2 CDDA sectors
File Size : 20.8M
Bit Rate : 323k
Sample Encoding: MPEG audio (layer I, II or III)
Comments :
Title=Martyrs of a Hopeless Cause
Artist=Paramorpheus
Album=The First Rebellion
Tracknumber=3
Year=2019



Register


Thanks:
Go to the top of the page
  Insert nick Quick quote
+Quote Post

Reply to this topicStart new topic
1 User(s) are reading this topic (1 Guests and 0 Anonymous Users)
0 Members:

 



- Lo-Fi Version Support form
Copyrights and abuse reports form
Time is now: 19th May 2019 - 15:46:28