Welcome Guest ( Log In | Register )

> Stormcrow - Face The Giant (2019), Black Metal
post May 15 2019, 04:14:16
Post #1

Правь статус, ####!111
**************
Group: Металариец
Posts: 17,750
Releases: 12037
From: Г.Харьков
On Forums: 7 years 2 months
Thanks: 202117 time(s)
Unknown


(IMG:http://metalarea.org/images/audiocovers/2019_May/acov_tid321867_thumb.jpg)

*Artist: Stormcrow
*Album: Face The Giant
*Year: 2019
*Genre: Black Metal
*Country: Italy (IMG:http://metalarea.org/forum/style_images/flags/Italy.png)
*Format: mp3@CBR320kbps
*Size: 92MB

Tracklist:
1. The Void
2. Face The Giant
3. Through The Eyes Of A Beast
4. Nanga Parbat
5. Black Mother
6. Relentless
7. River Of Decay
8. Empty Eyes
******************************
Total playing time: 39:58




Extended info
Astaroth Guitars
Vastis Vocals
See also: ex-Amniotic Count
Zedar Bass (1997-present)
See also: Koza Noztra, ex-De Occulta Philosophia, ex-Demon's Shade
Goraath Drums, Vocals (backing) (1999-present)
See also: Demon's Shade, ex-Malfeitor


Technical info
(IMG:http://metalarea.org/images/spectrogram/2019_May/4c032951c83db821abf2eea2d4f36848.png)
Input File: 04 - Nanga Parbat.mp3
Channels : 2
Sample Rate : 44100
Precision : 16-bit
Duration : 00:07:09.56 = 18943376 samples = 32216.6 CDDA sectors
File Size : 17.3M
Bit Rate : 322k
Sample Encoding: MPEG audio (layer I, II or III)
Comments :
Title=Nanga Parbat
Artist=Stormcrow
Album=Face the Giant
Tracknumber=4
Year=2019



Register


Go to the top of the page
  Insert nick Quick quote
+Quote Post
 
Start new topic
Replies (1 - 2)
post May 15 2019, 12:18:00
Post #2

Правь статус, ####!111
**************
Group: Металариец
Posts: 2,497
Releases: 3
From: Dnipro
On Forums: 11 years 3 days
Thanks: 677 time(s)
Ukraine


Красавцы, по альбому раз в шесть лет!!! Так держать, ждем следующего в 2025 (IMG:style_emoticons/default/19.gif)
Go to the top of the page
  Insert nick Quick quote
+Quote Post
post May 15 2019, 19:22:00
Post #3

Правь статус, ####!111
**************
Group: Металариец
Posts: 17,750
Releases: 12037
From: Г.Харьков
On Forums: 7 years 2 months
Thanks: 202117 time(s)
Unknown


Cloud Mail 320
Register
Go to the top of the page
  Insert nick Quick quote
+Quote Post

Reply to this topicStart new topic
1 User(s) are reading this topic (1 Guests and 0 Anonymous Users)
0 Members:

 



- Lo-Fi Version Support form
Copyrights and abuse reports form
Time is now: 17th July 2019 - 14:19:20