Welcome Guest ( Log In | Register )

> Demon Goat - Bitrot (2019), Black/Doom Metal (D9)
post May 15 2019, 08:14:00
Post #1
BAN
Banned till
Aug 30 2019, 19:40:36



(IMG:http://metalarea.org/images/audiocovers/2019_May/acov_tid321868_thumb.jpg)

*Artist: Demon Goat
*Album: Bitrot
*Year: 2019
*Genre: Black/Doom Metal
*Country: United States (IMG:http://metalarea.org/forum/style_images/flags/United%20States.png)
*Format: mp3@CBR320kbps
*Size: 87MB

Tracklist:
1. Synthetic Worshiper of the Void 09:55
2. The Architects of Demise 08:08
3. Entropy Legacy 07:40
4. Extrication of the Unfathomable 10:28
******************************
Total playing time: 36:11



Technical info
(IMG:http://metalarea.org/images/spectrogram/2019_May/7b7e5bf14ffebbc4422df05fdd28dfdf.png)
Input File: 03 Entropy Legacy.mp3
Channels : 2
Sample Rate : 44100
Precision : 16-bit
Duration : 00:07:40.78 = 20320222 samples = 34558.2 CDDA sectors
File Size : 18.4M
Bit Rate : 320k
Sample Encoding: MPEG audio (layer I, II or III)
Comments :
Title=Entropy Legacy
Artist=Demon Goat
Album=Bitrot
Tracknumber=3
Year=2019



Register


Go to the top of the page
  Insert nick Quick quote
+Quote Post
 
Start new topic
Replies (1 - 4)
post May 15 2019, 10:54:26
Post #2


**************
Group: Металариец
Posts: 2,041
Releases: 14
From: Казань
On Forums: 9 years 11 months
Thanks: 2641 time(s)
Russian Federation


Был неожиданно удивлен в хорошем смысле. Зрелый концептуальный массив с фоном в философские виражи . Приятная работа
Go to the top of the page
  Insert nick Quick quote
+Quote Post
post May 16 2019, 07:32:57
Post #3

Бэп!
*****
Group: Металариец
Posts: 426
Releases: 1
On Forums: 12 years 6 months
Thanks: 67 time(s)
Uruguay


Монолитный и глубокий материал. (IMG:style_emoticons/default/20.gif)
Go to the top of the page
  Insert nick Quick quote
+Quote Post
post May 18 2019, 13:41:54
Post #4
BAN
Banned till
Aug 30 2019, 19:40:36



Великолепное, атмосфернейшее полотно. Прошлому полноформату если и уступает, то самую малость.
Go to the top of the page
  Insert nick Quick quote
+Quote Post
post May 23 2019, 19:54:43
Post #5

i listen to black metal
**************
Group: Металариец
Posts: 2,369
Releases: 128
From: Москва-Лианозово
On Forums: 12 years 8 months
Thanks: 2055 time(s)
Russian Federation


такая шляпа drone experemental black
Go to the top of the page
  Insert nick Quick quote
+Quote Post

Reply to this topicStart new topic
1 User(s) are reading this topic (1 Guests and 0 Anonymous Users)
0 Members:

 



- Lo-Fi Version Support form
Copyrights and abuse reports form
Time is now: 24th August 2019 - 12:43:02