Welcome Guest ( Log In | Register )

 
Reply to this topicStart new topic
> Indulgence - Demo 1 [demo] (1993), Heavy/Thrash Metal (D4)
post May 15 2019, 09:28:45
Post #1

Подвал
**************
Group: Металариец
Posts: 13,548
Releases: 7681
From: Far East (Khabarovsk)
On Forums: 10 years 5 months
Thanks: 73678 time(s)
Russian Federation


(IMG:http://metalarea.org/images/audiocovers/2019_May/acov_tid321869_thumb.jpg)

*Artist: Indulgence
*Album: Demo 1 [demo]
*Year: 1993
*Genre: Heavy/Thrash Metal
*Country: United States (IMG:http://metalarea.org/forum/style_images/flags/United%20States.png)
*Format: mp3@CBR128kbps (IMG:http://metalarea.org/images/bit_low.gif)
*Size: 11MB

Tracklist:
1. Until Forever Ends 03:58
2. The Real World 08:05
******************************
Total playing time: 12:03

Extended info
Band from California.
Thanks T-Mag crew for the original post.


Technical info
(IMG:http://metalarea.org/images/spectrogram/2019_May/8bca008a1c0d644b4b73249bd4927fad.png)
Input File: 02-The Real World.mp3
Channels : 2
Sample Rate : 44100
Precision : 16-bit
Duration : 00:08:05.61 = 21415577 samples = 36421 CDDA sectors
File Size : 7.77M
Bit Rate : 128k
Sample Encoding: MPEG audio (layer I, II or III)
Comments :
Title=The Real World
Artist=Indulgence (US, CA)
Album=Demo 1
Tracknumber=02
Year=1993
Genre=Thrash Metal



Register


Go to the top of the page
  Insert nick Quick quote
+Quote Post

Reply to this topicStart new topic
1 User(s) are reading this topic (1 Guests and 0 Anonymous Users)
0 Members:

 



- Lo-Fi Version Support form
Copyrights and abuse reports form
Time is now: 17th July 2019 - 13:20:59