Welcome Guest ( Log In | Register )

 
Reply to this topicStart new topic
> Hatetrend - Borrowed Time [ep] (2007), Thrash/Groove Metal
post May 15 2019, 09:38:32
Post #1

Подвал
**************
Group: Металариец
Posts: 13,548
Releases: 7681
From: Far East (Khabarovsk)
On Forums: 10 years 5 months
Thanks: 73678 time(s)
Russian Federation


(IMG:http://metalarea.org/images/audiocovers/2019_May/acov_tid321870_thumb.jpg)

*Artist: Hatetrend
*Album: Borrowed Time [ep]
*Year: 2007
*Genre: Thrash/Groove Metal
*Country: Finland (IMG:http://metalarea.org/forum/style_images/flags/Finland.png)
*Format: mp3@CBR320kbps
*Size: 45MB

Tracklist:
1. This Is The Suffering 03:53
2. Borrowed Time 03:56
3. Abandoned 04:45
4. Weak 04:38
5. Another Dead Man Walking (New Mix) 05:47
******************************
Total playing time: 22:59



Technical info
(IMG:http://metalarea.org/images/spectrogram/2019_May/b4408e887e27084724e3c0fd254b457f.png)
Input File: 01-This Is The Suffering.mp3
Channels : 2
Sample Rate : 44100
Precision : 16-bit
Duration : 00:03:53.64 = 10303612 samples = 17523.1 CDDA sectors
File Size : 9.34M
Bit Rate : 320k
Sample Encoding: MPEG audio (layer I, II or III)
Comments :
Title=This Is The Suffering
Artist=HATETREND
Album=Borrowed Time
Tracknumber=01
Year=2007
Genre=Metal



Register


Go to the top of the page
  Insert nick Quick quote
+Quote Post

Reply to this topicStart new topic
1 User(s) are reading this topic (1 Guests and 0 Anonymous Users)
0 Members:

 



- Lo-Fi Version Support form
Copyrights and abuse reports form
Time is now: 17th July 2019 - 13:28:16