Welcome Guest ( Log In | Register )

> Releases Upload / Добавление релизов

Добавить релиз тут / Click here to add release
Рекомендованные обменники / Recommended file shares

> Blessed Hellride - Booze'n'roll [ep] (2013), Southern Metal
post May 15 2019, 10:46:53
Post #1

Девять Литров
*********
Group: Металариец
Posts: 992
Releases: 58
On Forums: 12 years 2 months
Thanks: 856 time(s)
Ukraine


(IMG:http://metalarea.org/images/audiocovers/2019_May/acov_tid321871_thumb.jpg)

*Artist: Blessed Hellride
*Album: Booze'n'roll [ep]
*Year: 2013
*Genre: Southern Metal
*Country: Germany (IMG:http://metalarea.org/forum/style_images/flags/Germany.png)
*Format: mp3@CBR320kbps
*Size: 59MB

Tracklist:
1. Bastards'n'Outlaws 05:03
2. Devil's Ride 04:53
3. Booze'n'Roll 04:03
4. Back from Hell 05:53
5. Zombiepokalypse 05:43
******************************
Total playing time: 25:35

(IMG:http://metalarea.org/images/youtube.png)

Technical info
(IMG:http://metalarea.org/images/spectrogram/2019_May/6e23a54047578ade43149f11ebafe02f.png)
Input File: 01 - Bastards n Outlaws.mp3
Channels : 2
Sample Rate : 44100
Precision : 16-bit
Duration : 00:05:03.72 = 13393876 samples = 22778.7 CDDA sectors
File Size : 12.2M
Bit Rate : 322k
Sample Encoding: MPEG audio (layer I, II or III)
Comments :
Title=Bastards n Outlaws
Artist=Blessed Hellride
Album=Booze n Roll EP
Tracknumber=1/5
Year=2013
Genre=Рок
Discnumber=1/1



Register


Go to the top of the page
  Insert nick Quick quote
+Quote Post
 
Start new topic
Replies (1 - 1)
post May 15 2019, 15:19:05
Post #2
BAN
Banned till
Jun 15 2019, 17:50:12



Ну фантазия ваша где?

Нахэра так в наглую слизывать БЛС?

Что по музлу, что по внешнему образу, что по названиям трэков...

Я понимаю, это типа дань кумирам, но индивидуальность в творчестве понад усё!
Go to the top of the page
  Insert nick Quick quote
+Quote Post

Reply to this topicStart new topic
1 User(s) are reading this topic (1 Guests and 0 Anonymous Users)
0 Members:

 



- Lo-Fi Version Support form
Copyrights and abuse reports form
Time is now: 19th May 2019 - 16:30:52