Welcome Guest ( Log In | Register )

> И неформату есть предел.

Рэп/хип-хоп/шансон/поп удаляются. Для них есть свои порталы.

 
Reply to this topicStart new topic
> Somnambulists - From The Field To The Factory (2019), Drone
post May 15 2019, 17:59:13
Post #1

Три Литра
***
Group: Завсегдатай
Posts: 275
Releases: 145
On Forums: 7 years 1 week
Thanks: 3509 time(s)
Unknown


(IMG:http://metalarea.org/images/audiocovers/2019_May/acov_tid321886_thumb.jpg)

*Artist: Somnambulists
*Album: From The Field To The Factory
*Year: 2019
*Genre: Drone
*Country: United States (IMG:http://metalarea.org/forum/style_images/flags/United%20States.png)
*Format: mp3@CBR320kbps
*Size: 153MB

Tracklist:
1. From the Field to the Factory 10:58
2. The Streets Were Paved With the Blood of Saints 07:00
3. And the Rain Swept In 06:46
4. Circular Ruins 09:39
5. We Are Children of the Ahistorical 05:56
6. Memories of the Blind 16:59
7. Poem of Struggle 03:42
8. Atonement 07:33
******************************
Total playing time: 1:08:33



Technical info
(IMG:http://metalarea.org/images/spectrogram/2019_May/b4aad5fc7b08da9dbd1e010479f4fbb0.png)
Input File: 1 - From the Field to the Factory.mp3
Channels : 2
Sample Rate : 44100
Precision : 16-bit
Duration : 00:10:49.49 = 28642597 samples = 48711.9 CDDA sectors
File Size : 26.0M
Bit Rate : 321k
Sample Encoding: MPEG audio (layer I, II or III)
Comments :
Title=From the Field to the Factory
Artist=Somnambulists
Album=From the Field to the Factory
Tracknumber=1
Year=2019
Genre=Rock
Discnumber=1



Register


Go to the top of the page
  Insert nick Quick quote
+Quote Post

Reply to this topicStart new topic
1 User(s) are reading this topic (1 Guests and 0 Anonymous Users)
0 Members:

 



- Lo-Fi Version Support form
Copyrights and abuse reports form
Time is now: 21st September 2019 - 12:28:25