Welcome Guest ( Log In | Register )

> И неформату есть предел.

Рэп/хип-хоп/шансон/поп удаляются. Для них есть свои порталы.

 
Reply to this topicStart new topic
> Avatar - The King Live In Paris [live] (2019), Nu-Metal (D)
post May 17 2019, 15:07:06
Post #1

Мегаманьяк
***********
Group: Металариец
Posts: 1,789
Releases: 1554
From: Одесса
On Forums: 11 years 2 weeks
Thanks: 12928 time(s)
Ukraine


(IMG:http://metalarea.org/images/audiocovers/2019_May/acov_tid321992_thumb.jpg)

*Artist: Avatar
*Album: The King Live In Paris [live]
*Year: 2019
*Genre: Nu-Metal
*Country: Sweden (IMG:http://metalarea.org/forum/style_images/flags/Sweden.png)
*Format: mp3@CBR320kbps
*Size: 145MB

Tracklist:
1. Intro
2. Statue of the King
3. Let It Burn
4. Paint Me Red
5. Bloody Angel
6. For the Swarm
7. Tower
8. The Eagle Has Landed
9. Smells like a Freakshow
10. Avatar Country
11. Hail the Apocalypse
******************************
Total playing time: 1:00:39



Extended info
Line - up:

Johannes Eckerström - Vocals (Trivium (live))
John Alfredsson - Drums
Jonas Jarlsby - Guitars, Vocals (backing)
Henrik Sandelin - Bass
Tim Öhrström - Guitars (ex-Eternity Remains)

(IMG:https://f4.bcbits.com/img/0014340508_10.jpg)


Technical info
(IMG:http://metalarea.org/images/spectrogram/2019_May/5d0de6cc03ad77a9191c15f541718799.png)
Input File: 6 - For the Swarm (Live in Paris 2018).mp3
Channels : 2
Sample Rate : 44100
Precision : 16-bit
Duration : 00:02:25.83 = 6430927 samples = 10937 CDDA sectors
File Size : 5.84M
Bit Rate : 320k
Sample Encoding: MPEG audio (layer I, II or III)
Comments :
Title=For the Swarm (Live in Paris 2018)
Artist=Avatar
Album=The King Live in Paris (Live)
Tracknumber=6
Year=2019
Genre=Nu-Metal



Register


Thanks:
(1) Olethros,
Go to the top of the page
  Insert nick Quick quote
+Quote Post

Reply to this topicStart new topic
1 User(s) are reading this topic (1 Guests and 0 Anonymous Users)
0 Members:

 



- Lo-Fi Version Support form
Copyrights and abuse reports form
Time is now: 18th June 2019 - 17:39:15