Welcome Guest ( Log In | Register )

> И неформату есть предел.

Рэп/хип-хоп/шансон/поп удаляются. Для них есть свои порталы.

 
Reply to this topicStart new topic
> Arboricidio - What We Leave Behind (2019), Neo-Crust/D-Beat
post May 17 2019, 16:47:42
Post #1

Три Литра
***
Group: Завсегдатай
Posts: 275
Releases: 145
On Forums: 7 years 1 week
Thanks: 3509 time(s)
Unknown


(IMG:http://metalarea.org/images/audiocovers/2019_May/acov_tid321999_thumb.jpg)

*Artist: Arboricidio
*Album: What We Leave Behind
*Year: 2019
*Genre: Neo-Crust/D-Beat
*Country: United Kingdom (IMG:http://metalarea.org/forum/style_images/flags/United%20Kingdom.png)
*Format: mp3@CBR320kbps
*Size: 71MB

Tracklist:
1. Fleeting But Beautiful 07:01
2. The Menace 05:26
3. The Blood of a Fascist 03:51
4. They Touched The Sky 04:43
5. Waves of Bodies 08:39
******************************
Total playing time: 29:40




Extended info
Hailing from London via Spain and Germany, Arboricidio play raging emo crust, a visceral pandemonium of weaving guitars over heavy d-beat, bringing to mind the legends of A Coruña, Ekkaia, Madame Germen and Ictus - with vocalist Amy’s venomous scream howling across desolate landscapes of collapsing pylons, bitter winds and withered trees.

Featuring a member of Morrow, Guest vocals by Alex CF, for fans of Ekkaia, Madame Germen, Gattaca, Landbridge and Hyena


Technical info
(IMG:http://metalarea.org/images/spectrogram/2019_May/eea9870bb1acccbe15d85bf85a956820.png)
Input File: Arboricidio - What We Leave Behind - 01 Fleeting But Beautiful.mp3
Channels : 2
Sample Rate : 44100
Precision : 16-bit
Duration : 00:07:01.98 = 18609274 samples = 31648.4 CDDA sectors
File Size : 17.1M
Bit Rate : 324k
Sample Encoding: MPEG audio (layer I, II or III)
Comments :
Title=Fleeting But Beautiful
Artist=Arboricidio
Album=What We Leave Behind
Tracknumber=1
Year=2019



Register


Go to the top of the page
  Insert nick Quick quote
+Quote Post

Reply to this topicStart new topic
1 User(s) are reading this topic (1 Guests and 0 Anonymous Users)
0 Members:

 



- Lo-Fi Version Support form
Copyrights and abuse reports form
Time is now: 21st September 2019 - 12:35:52