Welcome Guest ( Log In | Register )

> И неформату есть предел.

Рэп/хип-хоп/шансон/поп удаляются. Для них есть свои порталы.

> Greta - No Biting (1993), Alternative Rock/Metal With Grunge Influences
post May 17 2019, 18:34:53
Post #1

Пять Литров
*****
Group: Металариец
Posts: 445
Releases: 6
From: екб
On Forums: 13 years 8 months
Thanks: 114 time(s)
Russian Federation


(IMG:https://metalarea.org/images/audiocovers/2019_May/acov_tid322007_thumb.jpg)

*Artist: Greta
*Album: No Biting
*Year: 1993
*Genre: Alternative Rock/Metal With Grunge Influences
*Country: United States (IMG:https://metalarea.org/forum/style_images/flags/United%20States.png)
*Format: mp3@VBR263kbps
*Size: 86MB

Tracklist:
1 Is It What You Wanted 4:07
2 School On Fire 2:49
3 Off The Slug 3:24
4 Jesus Crux 4:53
5 Fathom 4:33
6 Love Is Dead 3:18
7 Revolver 3:49
8 Nature 5:48
9 Dirtbag 3:40
10 Insomnia 1:47
11 Sleepyhead 3:56
******************************
Total playing time: 42:05

(IMG:https://metalarea.org/images/youtube.png)

Technical info
(IMG:https://metalarea.org/images/spectrogram/2019_May/e04bd8b8d184e49eec14228927418144.png)
Input File: 01. Is It What You Wanted.mp3
Channels : 2
Sample Rate : 44100
Precision : 16-bit
Duration : 00:04:07.04 = 10894464 samples = 18528 CDDA sectors
File Size : 8.81M
Bit Rate : 285k
Sample Encoding: MPEG audio (layer I, II or III)
Comments :
Title=Is It What You Wanted
Artist=Greta
Album=No Biting
Tracknumber=1/11
Year=1993
Genre=Rock



Register


Thanks:
(2) snot, Tino,
Go to the top of the page
  Insert nick Quick quote
+Quote Post
 
Start new topic
Replies (1 - 4)
post May 22 2019, 17:53:44
Post #2

Два Литра
**
Group: Завсегдатай
Posts: 180
Releases: 0
From: Kiev
On Forums: 10 years 5 months
Thanks: 39 time(s)
Ukraine


Жаль в Украине с этого [мат->бан]го ядиска ничего не скачаешь (IMG:style_emoticons/default/mad_ani.gif)


Thanks:
(1) Ghostb,
Go to the top of the page
  Insert nick Quick quote
+Quote Post
post May 22 2019, 20:42:37
Post #3

Пять Литров
*****
Group: Металариец
Posts: 445
Releases: 6
From: екб
On Forums: 13 years 8 months
Thanks: 114 time(s)
Russian Federation


ЦИТАТА(Bruce @ May 22 2019, 21:53:44) *
Жаль в Украине с этого [мат->бан]го ядиска ничего не скачаешь (IMG:style_emoticons/default/mad_ani.gif)

Пиши, куда перезалить - сделаю
Go to the top of the page
  Insert nick Quick quote
+Quote Post
post May 23 2019, 17:57:01
Post #4

Два Литра
**
Group: Завсегдатай
Posts: 180
Releases: 0
From: Kiev
On Forums: 10 years 5 months
Thanks: 39 time(s)
Ukraine


Селезнёв
Да все остальные подходят, медиафайер, сампо. Буду благодарен, превьюшка доставила. Вчера полез за ними сразу на рутрекер а там их нет (IMG:style_emoticons/default/nyyy.gif)
Go to the top of the page
  Insert nick Quick quote
+Quote Post
post May 23 2019, 20:26:22
Post #5

Пять Литров
*****
Group: Металариец
Posts: 445
Releases: 6
From: екб
On Forums: 13 years 8 months
Thanks: 114 time(s)
Russian Federation


ЦИТАТА(Bruce @ May 23 2019, 21:57:01) *
Селезнёв
Да все остальные подходят, медиафайер, сампо. Буду благодарен, превьюшка доставила. Вчера полез за ними сразу на рутрекер а там их нет (IMG:style_emoticons/default/nyyy.gif)

Ок, вот медиафайер, те же параметры
КОД
http://www.mediafire.com/file/9a96piqs192ulgo/Gret93a.rar/file


А на рутрекере, как знать, может и появится когда-нибудь даже и лось, группа-то не совсем чтобы на 100% неизвестная: вот эта песня, что в превьюшке, в одной из серий "Бивиса и Баттхеда", к примеру, звучала (IMG:style_emoticons/default/smile1.gif)


Thanks:
(2) Bruce, KKK1488,
Go to the top of the page
  Insert nick Quick quote
+Quote Post

Reply to this topicStart new topic
1 User(s) are reading this topic (1 Guests and 0 Anonymous Users)
0 Members:

 



- Lo-Fi Version Support form
Copyrights and abuse reports form
Time is now: 27th June 2019 - 07:47:53