Welcome Guest ( Log In | Register )

> 

Здесь релизы с живыми прямыми ссылками на lossless

> Immortal Suffering - Preyed Upon (2019), Brutal Death Metal (D6)
post May 17 2019, 22:55:07
Post #1

Правь статус, ####!111
**************
Group: Металариец
Posts: 17,395
Releases: 11800
From: Г.Харьков
On Forums: 7 years 1 month
Thanks: 197445 time(s)
Unknown


(IMG:http://metalarea.org/images/audiocovers/2019_May/acov_tid322015_thumb.jpg)

*Artist: Immortal Suffering
*Album: Preyed Upon
*Year: 2019
*Genre: Brutal Death Metal
*Country: United States (IMG:http://metalarea.org/forum/style_images/flags/United%20States.png)
*Format: mp3@CBR320kbps
*Size: 73MB

Tracklist:
01. Mutilated
02. Bleed 'Em Out
03. Nothing Left
04. Preyed Upon
05. Pain
06. Embalmed Alive
07. 10 Days Earlier
08. Remember Me
09. Defeated
10. Corpse (2019)
11. Cheap Vodka (Acid Bath Cover)
******************************
Total playing time: 36:23



Extended info
Ralph Spadafora Vocals (?-1998, 2013-present)
Joe Provvisiero Guitars, Vocals (1992-1998), Guitars (2013-present)
Ray Lebron Vocals, Bass (1993-1998), Vocals (2013-present)
See also: ex-Internal Bleeding
Leo Bakman Guitars (1996-1998, 2013-present)
See also: Dethroned, Grotesqueuphoria, ex-S.P.O.R.E.
John Dotzler Bass (2013-present)
Randall Reekstin Drums (2016-present)
See also: Turrigenous, ex-Apathy


Technical info
(IMG:http://metalarea.org/images/spectrogram/2019_May/d9b78c76033da6d37b1d3f7d809382cf.png)
Input File: 04. Preyed Upon.mp3
Channels : 2
Sample Rate : 44100
Precision : 16-bit
Duration : 00:03:29.77 = 9250989 samples = 15733 CDDA sectors
File Size : 8.45M
Bit Rate : 322k
Sample Encoding: MPEG audio (layer I, II or III)
Comments :
Title=Preyed Upon
Artist=Immortal Suffering
Album=Preyed Upon
Tracknumber=4
Year=2019
Genre=Death Metal



Register


Go to the top of the page
  Insert nick Quick quote
+Quote Post
 
Start new topic
Replies (1 - 4)
post May 18 2019, 10:57:01
Post #2

Три Литра
***
Group: Завсегдатай
Posts: 285
Releases: 0
From: APATIN, SERBIA, АПАТИН, СЕРБИЯ
On Forums: 11 years 7 months
Thanks: 341 time(s)



Flac

Register


Thanks:
Go to the top of the page
  Insert nick Quick quote
+Quote Post
post May 18 2019, 11:13:21
Post #3

hearer & reader
**************
Group: Металариец
Posts: 7,818
Releases: 103
From: Moscow
On Forums: 11 years 9 months
Thanks: 7331 time(s)
Russian Federation


Привет из 90-х (IMG:style_emoticons/default/20.gif)
Херово, что и громкость - привет из 80-х.
Go to the top of the page
  Insert nick Quick quote
+Quote Post
post May 18 2019, 11:20:36
Post #4

Правь статус, ####!111
**************
Group: Металариец
Posts: 2,228
Releases: 0
From: Buffalo
On Forums: 10 years 2 months
Thanks: 1313 time(s)
United States


Что то они прям раскочегарились. Второй альбом с 2015-го и ни одного с начала 90-х до 2015го. Почувствовали вкус выпуска полноформатников?
Go to the top of the page
  Insert nick Quick quote
+Quote Post
post May 18 2019, 13:56:39
Post #5

член общества защитников попсы
******
Group: Металариец
Posts: 583
Releases: 1
From: Полтава
On Forums: 8 years 8 months
Thanks: 298 time(s)
Ukraine


Фигасе, вот это подгон. Облога, как всегда, туфта, но фик с ней - главное, чоб содержимое порадовало.
Go to the top of the page
  Insert nick Quick quote
+Quote Post

Reply to this topicStart new topic
1 User(s) are reading this topic (1 Guests and 0 Anonymous Users)
0 Members:

 



- Lo-Fi Version Support form
Copyrights and abuse reports form
Time is now: 18th June 2019 - 18:54:48