Welcome Guest ( Log In | Register )

> 

Здесь релизы с живыми прямыми ссылками на lossless

> Subservience - Ascending From The Abyss [ep] (2019), Death Metal (D5)
post May 19 2019, 21:24:54
Post #1

Правь статус, ####!111
**************
Group: Металариец
Posts: 18,143
Releases: 12271
From: Г.Харьков
On Forums: 7 years 3 months
Thanks: 206792 time(s)
Unknown


(IMG:http://metalarea.org/images/audiocovers/2019_May/acov_tid322063_thumb.jpg)

*Artist: Subservience
*Album: Ascending From The Abyss [ep]
*Year: 2019
*Genre: Death Metal
*Country: United Kingdom (IMG:http://metalarea.org/forum/style_images/flags/United%20Kingdom.png)
*Format: mp3@CBR320kbps
*Size: 44MB

Tracklist:
1. Neurotic Imperfection 04:04
2. Flesh of the Dead 04:47
3. The Deceit Epidemic 04:03
4. Pathogenocide 05:34
******************************
Total playing time: 18:28




Extended info
Scott Bishop Bass (2010-2017), Guitars (2017-present)
See also: Grim Ravine
Martin Shouler Guitars (2010-present)
See also: Grim Ravine, Superterrestrial
Dan Lofthouse Vocals (2014-present)
Lewis Cass Bass (2017-present)
See also: Grim Ravine
Dinko Pehlic Drums (2017-present)
See also: Vehement, ex-Opacus


Technical info
(IMG:http://metalarea.org/images/spectrogram/2019_May/a4a2f4d82ec91fbd7a5720f4a76c4d81.png)
Input File: 02. Flesh of the Dead.mp3
Channels : 2
Sample Rate : 44100
Precision : 16-bit
Duration : 00:04:47.89 = 12695861 samples = 21591.6 CDDA sectors
File Size : 11.9M
Bit Rate : 331k
Sample Encoding: MPEG audio (layer I, II or III)
Comments :
Title=Flesh of the Dead
Artist=Subservience
Album=Ascending from the Abyss
Tracknumber=02
Year=2019
Genre=Metal



Register


Go to the top of the page
  Insert nick Quick quote
+Quote Post
 
Start new topic
Replies (1 - 1)
post May 20 2019, 08:11:29
Post #2

Четыре Литра
****
Group: Металариец
Posts: 316
Releases: 0
From: APATIN, SERBIA, АПАТИН, СЕРБИЯ
On Forums: 11 years 9 months
Thanks: 402 time(s)



Flac

Register


Thanks:
Go to the top of the page
  Insert nick Quick quote
+Quote Post

Reply to this topicStart new topic
1 User(s) are reading this topic (1 Guests and 0 Anonymous Users)
0 Members:

 



- Lo-Fi Version Support form
Copyrights and abuse reports form
Time is now: 20th August 2019 - 17:38:01