Welcome Guest ( Log In | Register )

> Cthuluminati - Reliqideus (2019), Avant-Garde Blackened Stoner/Doom Metal
post May 21 2019, 04:50:35
Post #1

Правь статус, ####!111
**************
Group: Металариец
Posts: 24,625
Releases: 17444
From: Г.Харьков
On Forums: 8 years 8 months
Thanks: 336785 time(s)
Unknown


(IMG:http://metalarea.org/images/audiocovers/2019_May/acov_tid322089_thumb.jpg)

*Artist: Cthuluminati
*Album: Reliqideus
*Year: 2019
*Genre: Avant-Garde Blackened Stoner/Doom Metal
*Country: Netherlands (IMG:http://metalarea.org/forum/style_images/flags/Netherlands.png)
*Format: mp3@CBR320kbps
*Size: 115MB

Tracklist:
01. Illumni Fhtagn 07:02
02. El Lizard Birth 07:38
03. Svartalfr 11:50
04. Supernatural Selection 06:26
05. A Thin Line 06:52
06. Umibozu 10:14
******************************
Total playing time: 50:02



Extended info
Devi - vocals and guitar
Rami - guitar
Strausz - bass
Seth - drums


Technical info
(IMG:http://metalarea.org/images/spectrogram/2019_May/9997ccaf73889f776c05b0a3435c2dff.png)
Input File: 04 - Supernatural Selection.mp3
Channels : 2
Sample Rate : 44100
Precision : 16-bit
Duration : 00:06:27.00 = 17066656 samples = 29024.9 CDDA sectors
File Size : 15.6M
Bit Rate : 323k
Sample Encoding: MPEG audio (layer I, II or III)
Comments :
Title=Supernatural Selection
Artist=Cthuluminati
Album=Reliqideus
Tracknumber=4
Year=2019
Genre=Metal
Discnumber=1



Register


Go to the top of the page
  Insert nick Quick quote
+Quote Post
 
Start new topic
Replies (1 - 6)
post May 22 2019, 09:19:24
Post #2

hearer & reader
**************
Group: Металариец
Posts: 9,381
Releases: 169
From: Moscow
On Forums: 13 years 4 months
Thanks: 10216 time(s)
Russian Federation



Рассказки - https://www.cthuluminati.com/stories/


Thanks:
Go to the top of the page
  Insert nick Quick quote
+Quote Post
post May 22 2019, 19:52:15
Post #3

Trickster
Group Icon
Group: Moderation team
Posts: 4,617
Releases: 318
On Forums: 9 years 11 months
Thanks: 13085 time(s)
Russian Federation


ЦИТАТА
Avant-Garde Blackened Stoner/Doom Metal


АХАХАХАХА

Олег aesteticvice, вернись! Я все прощу
Go to the top of the page
  Insert nick Quick quote
+Quote Post
post May 23 2019, 16:11:45
Post #4

Group Icon
Group: S-moderation team
Posts: 18,824
Releases: 1441
From: Zagreb
On Forums: 9 years 10 months
Thanks: 86745 time(s)
Croatia


QUOTE(Daale @ May 22 2019, 20:52:15) *
АХАХАХАХА

Олег aesteticvice, вернись! Я все прощу
(IMG:style_emoticons/default/1488.gif) he would probably add few more tags, like "progressive" or "psychedelic" or both

I listened and that's what the band plays, a melodic mix of many extreme metal subgenres and styles... It's not bad. But too progressive for my taste.
Go to the top of the page
  Insert nick Quick quote
+Quote Post
post Jun 19 2019, 19:03:15
Post #5

кручу наждак
**************
Group: Металариец
Posts: 4,714
Releases: 103
From: Самара
On Forums: 10 years 8 months
Thanks: 3755 time(s)
Russian Federation


Затянуто и малоинтересно, но хотя бы видно, что старались.
Go to the top of the page
  Insert nick Quick quote
+Quote Post
post Jan 13 2021, 15:53:50
Post #6

Маньяк
**********
Group: Металариец
Posts: 1,302
Releases: 467
From: Саранск
On Forums: 9 years 8 months
Thanks: 4219 time(s)
Russian Federation


Register


Thanks:
Go to the top of the page
  Insert nick Quick quote
+Quote Post
post Jan 13 2021, 16:03:21
Post #7

Правь статус, ####!111
**************
Group: Металариец
Posts: 48,041
Releases: 763
On Forums: 11 years 7 months
Thanks: 41567 time(s)
Russian Federation


Никакого стоунера, дума нет, ни блэкенед, ни обычного.

Но содержание небезынтересно, работа продуманная и сложная, интересный микс различных кунштючкoff.
Go to the top of the page
  Insert nick Quick quote
+Quote Post

Reply to this topicStart new topic
1 User(s) are reading this topic (1 Guests and 0 Anonymous Users)
0 Members:

 



- Lo-Fi Version Support form
Copyrights and abuse reports form
Time is now: 22nd January 2021 - 06:59:23