Welcome Guest ( Log In | Register )

> BlackSxord - BlackSxord (2019), Heavy Metal
post May 22 2019, 13:55:37
Post #1

Serial Uploader
Group Icon
Group: V.I.P
Posts: 35,814
Releases: 34022
From: Lithuania
On Forums: 11 years 2 months
Thanks: 393158 time(s)
Lithuania


(IMG:https://metalarea.org/images/audiocovers/2019_May/acov_tid322127_thumb.jpg)

*Artist: BlackSxord
*Album: BlackSxord
*Year: 2019
*Genre: Heavy Metal
*Country: United States (IMG:https://metalarea.org/forum/style_images/flags/United%20States.png)
*Format: mp3@CBR320kbps
*Size: 93MB

Tracklist:
01. Medicated 04:02
02. Save Yourself 04:26
03. On the Run 04:37
04. The Pain Within 05:04
05. SouthBound Train 04:15
06. Death Sentence 04:28
07. Angels of Death 04:25
08. Cradle to the Grave 05:23
09. Ghost of Christmas 03:50
******************************
Total playing time: 40:30



Technical info
(IMG:https://metalarea.org/images/spectrogram/2019_May/7effa3abd7f48e65e19a2251d8ef7eb4.png)
Input File: 02. Save Yourself.mp3
Channels : 2
Sample Rate : 44100
Precision : 16-bit
Duration : 00:04:26.02 = 11731570 samples = 19951.6 CDDA sectors
File Size : 10.7M
Bit Rate : 322k
Sample Encoding: MPEG audio (layer I, II or III)
Comments :
Title=Save Yourself
Artist=BlackSxord
Album=BlackSxord
Tracknumber=2
Year=2019
Discnumber=1



Register


Go to the top of the page
  Insert nick Quick quote
+Quote Post
 
Start new topic
Replies (1 - 2)
post May 22 2019, 18:02:37
Post #2

hearer & reader
**************
Group: Металариец
Posts: 7,947
Releases: 103
From: Moscow
On Forums: 11 years 11 months
Thanks: 7453 time(s)
Russian Federation


https://www.youtube.com/watch?v=xnYZEANhdfI...aDvMo9zzXgpgxPI
Сами канадцы называют это Cinematic Metal
Что-то типа прог/хэви. Не особо интересно.
Go to the top of the page
  Insert nick Quick quote
+Quote Post
post May 23 2019, 08:20:07
Post #3

тебе 28, а ты все реверсами балуешься
***********
Group: Металариец
Posts: 1,707
Releases: 4
On Forums: 11 years 3 weeks
Thanks: 483 time(s)
Russian Federation


Ну фончиком где-нибудь по радио я бы и не переключил, но целенаправленно слушать - точно не мой клиент.
Go to the top of the page
  Insert nick Quick quote
+Quote Post

Reply to this topicStart new topic
1 User(s) are reading this topic (1 Guests and 0 Anonymous Users)
0 Members:

 



- Lo-Fi Version Support form
Copyrights and abuse reports form
Time is now: 19th August 2019 - 06:43:07