Welcome Guest ( Log In | Register )

> Inversum - The Lost Souls Road (2019), Melodic Death Metal
post May 22 2019, 21:13:13
Post #1

Правь статус, ####!111
**************
Group: Металариец
Posts: 18,155
Releases: 12278
From: Г.Харьков
On Forums: 7 years 3 months
Thanks: 206974 time(s)
Unknown


(IMG:http://metalarea.org/images/audiocovers/2019_May/acov_tid322137_thumb.jpg)

*Artist: Inversum
*Album: The Lost Souls Road
*Year: 2019
*Genre: Melodic Death Metal
*Country: Ukraine (IMG:http://metalarea.org/forum/style_images/flags/Ukraine.png)
*Format: mp3@CBR320kbps
*Size: 69MB

Tracklist:
01. Silence Within
02. Through the Storm
03. The Void of Tomorrow
04. The New Momentum
05. Releasing the Demon
06. Praeteritum World
07. Vague Memories
08. Endure the Silence
09. The Lost Souls Road
******************************
Total playing time: 29:34

(IMG:http://metalarea.org/images/youtube.png)

Extended info
Dmytro Ivchenko - Vocals, guitars, bass, keys, drums
Alex Root - Vocals


Technical info
(IMG:http://metalarea.org/images/spectrogram/2019_May/e058c5c3d5c2137ce6349d33948cb347.png)
Input File: 06 - Praeteritum World.mp3
Channels : 2
Sample Rate : 44100
Precision : 16-bit
Duration : 00:05:38.93 = 14946857 samples = 25419.8 CDDA sectors
File Size : 13.6M
Bit Rate : 322k
Sample Encoding: MPEG audio (layer I, II or III)
Comments :
Title=Praeteritum World
Artist=Inversum
Album=The Lost Souls Road
Tracknumber=6
Year=2019
Genre=Metal
Discnumber=1



Register


Go to the top of the page
  Insert nick Quick quote
+Quote Post
 
Start new topic
Replies (1 - 2)
post May 24 2019, 18:34:01
Post #2

MDM-Thrash Metal
**************
Group: Металариец
Posts: 8,533
Releases: 565
From: Одесса
On Forums: 12 years 1 week
Thanks: 16576 time(s)
Ukraine


Красиво, мелодично, но уж слишком легковесно...
Go to the top of the page
  Insert nick Quick quote
+Quote Post
post Jun 3 2019, 11:35:44
Post #3

Ъ
**************
Group: Металариец
Posts: 9,632
Releases: 9
On Forums: 10 years 7 months
Thanks: 1876 time(s)
Sweden


На раз прогнать можно.
Go to the top of the page
  Insert nick Quick quote
+Quote Post

Reply to this topicStart new topic
2 User(s) are reading this topic (2 Guests and 0 Anonymous Users)
0 Members:

 



- Lo-Fi Version Support form
Copyrights and abuse reports form
Time is now: 21st August 2019 - 14:21:49