Welcome Guest ( Log In | Register )

> Denunciation - Garbage Burial [ep] (2019), Death Metal
post May 23 2019, 00:49:43
Post #1

Правь статус, ####!111
**************
Group: Металариец
Posts: 18,179
Releases: 12292
From: Г.Харьков
On Forums: 7 years 3 months
Thanks: 207296 time(s)
Unknown


(IMG:http://metalarea.org/images/audiocovers/2019_May/acov_tid322141_thumb.jpg)

*Artist: Denunciation
*Album: Garbage Burial [ep]
*Year: 2019
*Genre: Death Metal
*Country: United States (IMG:http://metalarea.org/forum/style_images/flags/United%20States.png)
*Format: mp3@CBR320kbps
*Size: 39MB

Tracklist:
1. Garbage Burial 01:20
2. Urge to Stab 01:58
3. Whacked and Hacked 02:43
4. German Suplexed to Death 03:12
5. Extirpated by Swine 02:25
6. Hunting Human Prey 05:10
******************************
Total playing time: 16:48




Extended info
N. Barnhart - guitar
J. DeOdio - vocals
N. Liuzzi - drums
B. Tardiff - bass



Technical info
(IMG:http://metalarea.org/images/spectrogram/2019_May/5cedf71fa689c6654836a205cc9b25a1.png)
Input File: 04 German Suplexed to Death.mp3
Channels : 2
Sample Rate : 44100
Precision : 16-bit
Duration : 00:03:13.06 = 8513726 samples = 14479.1 CDDA sectors
File Size : 7.84M
Bit Rate : 325k
Sample Encoding: MPEG audio (layer I, II or III)
Comments :
Title=German Suplexed to Death
Artist=Denunciation
Album=Garbage Burial
Tracknumber=4
Year=2019



Register


Go to the top of the page
  Insert nick Quick quote
+Quote Post
 
Start new topic
Replies (1 - 1)
post May 24 2019, 17:38:49
Post #2

Crush The Enemies
**************
Group: Металариец
Posts: 4,217
Releases: 0
From: Moscow
On Forums: 9 years 11 months
Thanks: 2379 time(s)
Russian Federation



Никаких изысканных наворотов - но БРОНЕБОЙНО и БРУТАЛЬНО!!! (IMG:style_emoticons/default/metaler.gif) (IMG:style_emoticons/default/metaler.gif) (IMG:style_emoticons/default/metaler.gif)

P.S В духе раннего шведо-любимого DERANGED (IMG:style_emoticons/default/dwarf-1.gif)
Go to the top of the page
  Insert nick Quick quote
+Quote Post

Reply to this topicStart new topic
1 User(s) are reading this topic (1 Guests and 0 Anonymous Users)
0 Members:

 



- Lo-Fi Version Support form
Copyrights and abuse reports form
Time is now: 23rd August 2019 - 10:04:03