Welcome Guest ( Log In | Register )

> Decimation System - The Conspiracy Theory (2019), Death Metal
post May 23 2019, 03:14:55
Post #1

Правь статус, ####!111
**************
Group: Металариец
Posts: 19,841
Releases: 13463
From: Г.Харьков
On Forums: 7 years 7 months
Thanks: 232853 time(s)
Unknown


(IMG:http://metalarea.org/images/audiocovers/2019_May/acov_tid322153_thumb.jpg)

*Artist: Decimation System
*Album: The Conspiracy Theory
*Year: 2019
*Genre: Death Metal
*Country: Costa Rica (IMG:http://metalarea.org/forum/style_images/flags/Costa%20Rica.png)
*Format: mp3@CBR320kbps
*Size: 81MB

Tracklist:
1. Illuminati War 00:22 instrumental
2. Novus Ordo Seclorum 05:16
3. Unleashing the Gathered Darkness 03:45
4. Act of War 04:03
5. MDCCLXXVI 06:12
6. Human Collapse 06:04
7. Towards to the Endless of Times 04:19
8. Lucifer Lux 05:04
******************************
Total playing time: 35:05




Extended info
Marco Rojas Drums, Percussion
Pedro Calderón Guitars, Vocals (backing)
Youset Vargas Vocals, Bass


Technical info
(IMG:http://metalarea.org/images/spectrogram/2019_May/6b7290903ac3bbf064187bd66302a092.png)
Input File: 04 - Act of War.mp3
Channels : 2
Sample Rate : 44100
Precision : 16-bit
Duration : 00:04:04.13 = 10766133 samples = 18309.8 CDDA sectors
File Size : 9.77M
Bit Rate : 320k
Sample Encoding: MPEG audio (layer I, II or III)
Comments :
Title=Act of War
Artist=Decimation System
Album=The Conspiracy Theory
Tracknumber=4
Year=2019



Register


Go to the top of the page
  Insert nick Quick quote
+Quote Post
 
Start new topic
Replies (1 - 2)
post May 23 2019, 15:14:55
Post #2

hearer & reader
**************
Group: Металариец
Posts: 8,235
Releases: 111
From: Moscow
On Forums: 12 years 3 months
Thanks: 7771 time(s)
Russian Federation


Приятный гроулинг. Всё.


Thanks:
Go to the top of the page
  Insert nick Quick quote
+Quote Post
post May 27 2019, 11:44:43
Post #3

antithesis
**************
Group: Металариец
Posts: 2,883
Releases: 32
From: VRN
On Forums: 9 years 6 months
Thanks: 1728 time(s)
Russian Federation


бутафорский дэт
Go to the top of the page
  Insert nick Quick quote
+Quote Post

Reply to this topicStart new topic
1 User(s) are reading this topic (1 Guests and 0 Anonymous Users)
0 Members:

 



- Lo-Fi Version Support form
Copyrights and abuse reports form
Time is now: 12th December 2019 - 17:36:41