Welcome Guest ( Log In | Register )

> И неформату есть предел.

Рэп/хип-хоп/шансон/поп удаляются. Для них есть свои порталы.

 
Reply to this topicStart new topic
> The Stampeders - Best Of [compilation] (2004), Rock
post May 23 2019, 08:08:08
Post #1

Пять Литров
*****
Group: Металариец
Posts: 470
Releases: 101
On Forums: 7 months 3 weeks
Thanks: 1020 time(s)
Canada


(IMG:https://metalarea.org/images/audiocovers/2019_May/acov_tid322157_thumb.jpg)

*Artist: The Stampeders
*Album: Best Of [compilation]
*Year: 2004
*Genre: Rock
*Country: Canada (IMG:https://metalarea.org/forum/style_images/flags/Canada.png)
*Format: mp3@CBR320kbps
*Size: 165MB

Tracklist:
1. Carry Me 02:58
2. Sweet City Woman 03:27
3. Devil You 02:59
4. Monday Morning Choo Choo 02:15
5. Then Came The White Man 03:47
6. Wild Eyes 03:26
7. Johnny Lightning 02:30
8. Oh My Lady 03:51
9. Minstrel Gypsy 03:37
10. Running Wild 03:29
11. Me And My Stone 03:12
12. Ramona 03:18
13. Hit The Road Jack 02:54
14. New Orleans 02:57
15. Playin' In The Band 03:46
16. Sweet Love Bandit 02:26
17. San Diego 02:59
18. Bring The House Down 04:05
19. Everybody 03:57
20. Man Smart Woman Smarter 02:45
21. Baby With You 04:00
22. Got My Mojo Working 03:32
******************************
Total playing time: 1:12:10



Technical info
(IMG:https://metalarea.org/images/spectrogram/2019_May/c18344738e3145e1663099bef997f963.png)
Input File: 06 - The Stampeders - Wild Eyes.mp3
Channels : 2
Sample Rate : 44100
Precision : 16-bit
Duration : 00:03:26.36 = 9100256 samples = 15476.6 CDDA sectors
File Size : 8.26M
Bit Rate : 320k
Sample Encoding: MPEG audio (layer I, II or III)
Comments :
Title=Wild Eyes
Artist=The Stampeders
Album=Best Of - SPLK-7351
Tracknumber=6
Year=2004
Genre=Classic Soft Rock
Discnumber=1/1



Register


Thanks:
(1) marilin,
Go to the top of the page
  Insert nick Quick quote
+Quote Post

Reply to this topicStart new topic
1 User(s) are reading this topic (1 Guests and 0 Anonymous Users)
0 Members:

 



- Lo-Fi Version Support form
Copyrights and abuse reports form
Time is now: 21st September 2019 - 12:36:55